<?xml version="1.0" standalone="no"?>
<!DOCTYPE svg PUBLIC "-//W3C//DTD SVG 1.1//EN" "http://www.w3.org/Graphics/SVG/1.1/DTD/svg11.dtd" >
<svg xmlns="http://www.w3.org/2000/svg" xmlns:xlink="http://www.w3.org/1999/xlink" version="1.1">
<metadata>
Created by Christoph Koeberlin (http://christoph.koe.berlin)
Copyright (c) 2018 Swiss Typefaces Sarl. All rights reserved.
</metadata>
<defs>
<font id="Font" horiz-adv-x="0" >
  <font-face 
    font-family="Font"
    font-weight="400"
    font-stretch="normal"
    units-per-em="1000"
    panose-1="2 11 5 4 0 0 0 0 0 0"
    ascent="800"
    descent="-200"
    x-height="500"
    cap-height="710"
    bbox="-361 -273 1100 993"
    underline-thickness="75"
    underline-position="-170"
    unicode-range="U+0020-FB02"
  />
<missing-glyph horiz-adv-x="682" 
d="M91 710h500v-710h-500v710zM110 682v-654l220 327zM572 28v654l-221 -327zM125 691l216 -321l216 321h-432zM125 19h432l-216 320z" />
    <glyph glyph-name=".notdef" horiz-adv-x="682" 
d="M91 710h500v-710h-500v710zM110 682v-654l220 327zM572 28v654l-221 -327zM125 691l216 -321l216 321h-432zM125 19h432l-216 320z" />
    <glyph glyph-name="glyph1" 
 />
    <glyph glyph-name="glyph2" horiz-adv-x="241" 
 />
    <glyph glyph-name="space" unicode=" " horiz-adv-x="241" 
 />
    <glyph glyph-name="exclam" unicode="!" horiz-adv-x="272" 
d="M93 426v284h86v-284l-16 -204h-54zM69 0v124h124v-124h-124z" />
    <glyph glyph-name="quotedbl" unicode="&#x22;" horiz-adv-x="413" 
d="M66 710h78v-247h-78v247zM268 710h78v-247h-78v247z" />
    <glyph glyph-name="numbersign" unicode="#" horiz-adv-x="737" 
d="M409 200h-181l-61 -200h-80l62 200h-116v73h139l54 171h-120v73h143l60 193h79l-60 -193h180l61 193h78l-60 -193h116v-73h-139l-53 -171h120v-73h-144l-61 -200h-79zM252 273h180l53 171h-180z" />
    <glyph glyph-name="dollar" unicode="$" horiz-adv-x="511" 
d="M232 -9q-63 5 -111.5 29t-76.5 55l57 66q22 -26 55.5 -43.5t75.5 -22.5v250l-33 13q-81 32 -117.5 82.5t-36.5 119.5q0 40 15 72t40.5 55t59.5 36.5t72 17.5v77h54v-78q51 -5 92 -26.5t68 -50.5l-57 -63q-44 47 -103 57v-236l27 -11q79 -31 119.5 -80.5t40.5 -125.5
q0 -45 -14.5 -80t-39.5 -59t-59.5 -37.5t-73.5 -16.5v-79h-54v79zM387 178q0 48 -26 76t-75 49v-228q44 7 72.5 34t28.5 69zM131 541q0 -42 23.5 -69t77.5 -50v215q-45 -6 -73 -31.5t-28 -64.5z" />
    <glyph glyph-name="percent" unicode="%" horiz-adv-x="991" 
d="M224 0l450 710h93l-450 -710h-93zM762 -8q-41 0 -77 15.5t-62.5 42.5t-42 62.5t-15.5 76.5t15.5 77t42 62.5t62.5 42t77 15.5q40 0 76 -15.5t63 -42t42.5 -62.5t15.5 -77t-15.5 -76.5t-42.5 -62.5t-63 -42.5t-76 -15.5zM762 70q24 0 45.5 9.5t37.5 26t25.5 38t9.5 45.5
t-9.5 45.5t-25.5 38t-37.5 26t-45.5 9.5q-25 0 -46.5 -9.5t-37.5 -26t-25 -38t-9 -45.5t9 -45.5t25 -38t37.5 -26t46.5 -9.5zM229 324q-41 0 -77 15.5t-62.5 42.5t-42 62.5t-15.5 76.5t15.5 77t42 62.5t62.5 42t77 15.5q40 0 76 -15.5t63 -42t42.5 -62.5t15.5 -77
t-15.5 -76.5t-42.5 -62.5t-63 -42.5t-76 -15.5zM229 402q24 0 45.5 9.5t37.5 26t25.5 38t9.5 45.5t-9.5 45.5t-25.5 38t-37.5 26t-45.5 9.5q-25 0 -46.5 -9.5t-37.5 -26t-25 -38t-9 -45.5t9 -45.5t25 -38t37.5 -26t46.5 -9.5z" />
    <glyph glyph-name="ampersand" unicode="&#x26;" horiz-adv-x="740" 
d="M284 -10q-49 0 -89.5 15.5t-69 42.5t-44 64.5t-15.5 81.5q0 39 13 69.5t34.5 54.5t48.5 43.5t55 35.5l5 3q-16 15 -31.5 32.5t-27.5 37.5t-19.5 42.5t-7.5 48.5q0 36 14 65.5t38.5 50.5t57.5 33t71 12q39 0 71 -13t55.5 -35.5t36 -52.5t12.5 -64q0 -33 -12 -59.5
t-31.5 -47.5t-44 -38t-50.5 -30l152 -148l104 134l61 -48l-109 -140l185 -180h-113l-122 118q-28 -32 -54 -56t-53.5 -40t-57 -24t-63.5 -8zM287 68q48 0 87 25.5t83 78.5l-178 172l-13 -7q-53 -28 -83 -60.5t-30 -83.5q0 -30 11 -53t30 -39t43 -24.5t50 -8.5zM219 559
q0 -36 22.5 -63t57.5 -60l5 3q21 11 40 22t32.5 24.5t21.5 29.5t8 36q0 42 -24.5 69t-66.5 27q-39 0 -67.5 -23t-28.5 -65z" />
    <glyph glyph-name="quotesingle" unicode="'" horiz-adv-x="211" 
d="M66 710h78v-247h-78v247z" />
    <glyph glyph-name="parenleft" unicode="(" horiz-adv-x="264" 
d="M124 320q0 -116 25 -225.5t82 -224.5l-56 -30q-128 232 -128 480t128 480l56 -30q-57 -115 -82 -224.5t-25 -225.5z" />
    <glyph glyph-name="parenright" unicode=")" horiz-adv-x="264" 
d="M140 320q0 116 -25 225.5t-82 224.5l56 30q128 -232 128 -480t-128 -480l-56 30q57 115 82 224.5t25 225.5z" />
    <glyph glyph-name="asterisk" unicode="*" horiz-adv-x="440" 
d="M88 411l77 107l-126 42l19 64l128 -42v128h67v-128l127 41l21 -63l-127 -42l79 -107l-54 -39l-79 107l-78 -107z" />
    <glyph glyph-name="plus" unicode="+" horiz-adv-x="500" 
d="M38 328h173v172h78v-172h172v-77h-172v-172h-78v172h-173v77z" />
    <glyph glyph-name="comma" unicode="," horiz-adv-x="257" 
d="M121 0h-55v124h124v-125l-62 -153h-54z" />
    <glyph glyph-name="hyphen" unicode="-" horiz-adv-x="386" 
d="M65 323h255v-86h-255v86z" />
    <glyph glyph-name="period" unicode="." horiz-adv-x="242" 
d="M59 0v124h124v-124h-124z" />
    <glyph glyph-name="slash" unicode="/" horiz-adv-x="509" 
d="M407 710h81l-386 -820h-81z" />
    <glyph glyph-name="zero" unicode="0" horiz-adv-x="623" 
d="M311 -10q-55 0 -101 19.5t-79.5 54.5t-52 84.5t-18.5 108.5v198q0 59 18.5 108t52 84.5t79.5 55t101 19.5t101 -19.5t79.5 -55t52.5 -84.5t19 -108v-198q0 -59 -19 -108.5t-52.5 -84.5t-79.5 -54.5t-101 -19.5zM311 74q73 0 119.5 48t46.5 135v198q0 87 -46.5 135
t-119.5 48q-36 0 -66.5 -12.5t-52 -36t-34 -57.5t-12.5 -77v-198q0 -43 12.5 -77t34 -57.5t52 -36t66.5 -12.5z" />
    <glyph glyph-name="one" unicode="1" horiz-adv-x="311" 
d="M131 625h-98v85h184v-710h-86v625z" />
    <glyph glyph-name="two" unicode="2" horiz-adv-x="551" 
d="M39 72l274 266q18 17 34.5 36t30 40t21.5 43.5t8 47.5q0 28 -10.5 52.5t-28.5 42.5t-42.5 28t-52.5 10q-27 0 -50.5 -9.5t-42.5 -26t-31.5 -39t-16.5 -48.5l-86 18q7 41 27 75.5t50 60t69 39.5t84 14q46 0 86 -15.5t69.5 -44t46 -67.5t16.5 -86q0 -68 -33 -123.5
t-89 -109.5l-202 -193h333v-83h-464v72z" />
    <glyph glyph-name="three" unicode="3" horiz-adv-x="567" 
d="M277 -10q-42 0 -82.5 12t-74.5 34.5t-58.5 55t-34.5 72.5l87 30q14 -53 57 -86.5t107 -33.5q31 0 59 10.5t49 29t33.5 44.5t12.5 57q0 68 -43.5 105.5t-113.5 37.5h-84v71l180 197h-304v84h419v-71l-182 -201q50 -2 90 -20t67.5 -48t42.5 -70t15 -85q0 -48 -17.5 -89.5
t-49.5 -71.5t-76.5 -47t-98.5 -17z" />
    <glyph glyph-name="four" unicode="4" horiz-adv-x="617" 
d="M395 193h-378v69l389 448h75v-436h98v-81h-98v-193h-86v193zM395 274v306l-266 -306h266z" />
    <glyph glyph-name="five" unicode="5" horiz-adv-x="568" 
d="M294 -10q-42 0 -82.5 12.5t-74.5 35t-58.5 54.5t-34.5 72l87 30q13 -52 56 -86t107 -34q31 0 58 12t46.5 32.5t30.5 48t11 59.5t-11 60t-30.5 48.5t-47 32.5t-60.5 12q-42 0 -75 -16t-52 -45h-88v392h405v-84h-319v-216q20 20 56.5 35.5t83.5 15.5q50 0 91.5 -19
t71.5 -52t46.5 -78t16.5 -97q0 -47 -18 -88t-49.5 -71.5t-74 -48t-92.5 -17.5z" />
    <glyph glyph-name="six" unicode="6" horiz-adv-x="559" 
d="M277 -10q-52 0 -96 18.5t-76.5 50t-50.5 74.5t-18 91q0 56 23.5 99t56.5 82l259 305h109l-217 -257q7 1 13.5 1.5t14.5 0.5q45 0 85 -18.5t70.5 -49.5t48.5 -73t18 -88q0 -49 -18 -92t-50 -75t-76 -50.5t-96 -18.5zM277 73q32 0 60 12t48.5 33t32 48.5t11.5 59.5
q0 31 -11.5 59t-32 49t-48.5 33t-60 12q-33 0 -61 -12t-48.5 -33t-32 -49t-11.5 -59q0 -32 11.5 -59.5t32 -48.5t48.5 -33t61 -12z" />
    <glyph glyph-name="seven" unicode="7" horiz-adv-x="509" 
d="M61 0l331 626h-363v84h466v-72l-338 -638h-96z" />
    <glyph glyph-name="eight" unicode="8" horiz-adv-x="571" 
d="M286 -10q-52 0 -96 16.5t-75.5 46.5t-49.5 71t-18 89q0 64 29.5 111.5t82.5 73.5q-34 24 -53.5 60t-19.5 81q0 40 15 73.5t42 58t63.5 38t79.5 13.5q44 0 80.5 -13.5t63 -38t41 -58t14.5 -73.5q0 -45 -19 -81t-53 -60q53 -26 82 -73.5t29 -111.5q0 -48 -17.5 -89t-49 -71
t-75 -46.5t-96.5 -16.5zM286 72q36 0 64 11t47.5 30t29.5 45t10 55q0 30 -10 56t-29.5 45t-47.5 30t-64 11q-35 0 -63 -11t-48 -30t-30.5 -45t-10.5 -56q0 -29 10.5 -55t30.5 -45t48 -30t63 -11zM286 432q27 0 48 8.5t36 23t22.5 33.5t7.5 40q0 45 -30 74.5t-84 29.5
q-52 0 -83.5 -29.5t-31.5 -74.5q0 -21 8 -40t23 -33.5t36.5 -23t47.5 -8.5z" />
    <glyph glyph-name="nine" unicode="9" horiz-adv-x="559" 
d="M293 258q-8 -1 -14.5 -1h-13.5q-45 0 -85 18.5t-70.5 49.5t-48.5 72.5t-18 87.5q0 49 18 92.5t50 75.5t76 50.5t96 18.5t96 -18.5t76 -50t50.5 -74.5t18.5 -91q0 -56 -23.5 -99t-56.5 -82l-260 -307h-110zM283 333q33 0 61 12t48.5 33t32 48.5t11.5 59.5q0 31 -11.5 59
t-32 49t-48.5 33t-61 12t-60.5 -12t-48 -33t-32 -49t-11.5 -59q0 -32 11.5 -59.5t32 -48.5t48 -33t60.5 -12z" />
    <glyph glyph-name="colon" unicode=":" horiz-adv-x="254" 
d="M60 370v124h124v-124h-124zM60 0v124h124v-124h-124z" />
    <glyph glyph-name="semicolon" unicode=";" horiz-adv-x="254" 
d="M60 370v124h124v-124h-124zM120 0h-55v124h124v-125l-62 -153h-54z" />
    <glyph glyph-name="equal" unicode="=" horiz-adv-x="560" 
d="M68 219h424v-76h-424v76zM68 437h424v-77h-424v77z" />
    <glyph glyph-name="question" unicode="?" horiz-adv-x="526" 
d="M202 256q0 20 8.5 38.5t22 35.5t29.5 31t31 25q21 15 38 29t29 29t19 32t7 40q0 26 -10.5 48t-28 38.5t-41 26t-50.5 9.5q-52 0 -93 -25t-64 -67l-70 42q15 29 38 53.5t52.5 42.5t64 28t73.5 10q47 0 86.5 -16.5t68 -45t44.5 -65.5t16 -77q0 -34 -9.5 -61t-25 -49
t-34 -39t-36.5 -31q-14 -11 -28 -21.5t-25.5 -22t-18.5 -24t-7 -26.5v-8h-86v20zM177 0v124h124v-124h-124z" />
    <glyph glyph-name="at" unicode="@" horiz-adv-x="812" 
d="M395 -10q-81 0 -145.5 27t-109.5 74t-69 110.5t-24 135.5q0 85 32 156t85.5 122t124 79t147.5 28q72 0 134 -22.5t108 -63.5t72 -99.5t26 -130.5q0 -65 -15 -111.5t-40 -76.5t-57 -44.5t-66 -14.5q-47 0 -71 18.5t-34 41.5q-19 -26 -55 -42.5t-74 -16.5q-32 0 -59.5 12
t-48.5 34t-33 54t-12 73q0 47 16 87t43.5 69t64 45.5t78.5 16.5q26 0 46 -7.5t34 -18t23 -22t13 -19.5l10 58h76l-49 -238q-7 -33 -0.5 -56t38.5 -23q46 0 74 44.5t28 138.5q0 57 -20.5 103t-57 78.5t-86 50t-107.5 17.5q-63 0 -120 -22.5t-101 -64t-70 -101t-26 -132.5
q0 -62 19 -113.5t55 -89t87 -58.5t116 -21q45 0 93 10t89 32l28 -63q-47 -22 -103 -33t-107 -11zM376 228q35 0 64 18.5t46 47.5l24 113q-8 27 -32 51.5t-64 24.5q-23 0 -44 -8.5t-38 -24t-28.5 -36.5t-15.5 -45q-6 -30 -2 -56t16 -44.5t31 -29.5t43 -11z" />
    <glyph glyph-name="A" unicode="A" horiz-adv-x="718" 
d="M320 710h77l315 -710h-97l-92 207h-331l-90 -207h-96zM229 291h257l-129 293z" />
    <glyph glyph-name="B" unicode="B" horiz-adv-x="629" 
d="M94 710h233q49 0 88.5 -15.5t67 -41t42 -60t14.5 -71.5q0 -53 -21 -88.5t-55 -56.5q52 -19 87.5 -59t35.5 -111q0 -44 -17 -82t-48 -66t-75 -43.5t-98 -15.5h-254v710zM352 84q72 0 107.5 33.5t35.5 86.5q0 52 -35.5 86.5t-106.5 34.5h-166v-241h165zM327 405q57 0 89 31
t32 79q0 45 -32 78t-89 33h-140v-221h140z" />
    <glyph glyph-name="C" unicode="C" horiz-adv-x="755" 
d="M412 -12q-77 0 -143.5 28.5t-116.5 78t-78.5 116.5t-28.5 144t28.5 144t78.5 116.5t116.5 78t143.5 28.5q102 0 184 -46.5t130 -125.5l-78 -47q-37 60 -97.5 95.5t-138.5 35.5q-58 0 -108 -21.5t-86.5 -59.5t-57.5 -89t-21 -109q0 -59 21 -109.5t57.5 -88.5t86.5 -59.5
t108 -21.5q78 0 138.5 35.5t97.5 95.5l78 -47q-48 -79 -130 -125.5t-184 -46.5z" />
    <glyph glyph-name="D" unicode="D" horiz-adv-x="721" 
d="M94 710h204q82 0 151 -27t119.5 -74.5t79 -112.5t28.5 -141t-28.5 -141t-79 -112.5t-119.5 -74.5t-151 -27h-204v710zM298 87q64 0 116.5 20t89.5 56t57.5 85t20.5 107t-20.5 107t-57.5 85t-89.5 56t-116.5 20h-111v-536h111z" />
    <glyph glyph-name="E" unicode="E" horiz-adv-x="557" 
d="M94 710h414v-88h-321v-215h261v-88h-261v-231h321v-88h-414v710z" />
    <glyph glyph-name="F" unicode="F" horiz-adv-x="531" 
d="M94 710h413v-88h-320v-215h253v-88h-253v-319h-93v710z" />
    <glyph glyph-name="G" unicode="G" horiz-adv-x="765" 
d="M428 -12q-84 0 -154 28t-121 77.5t-79 116.5t-28 145q0 77 28 144t77.5 116.5t117.5 78t147 28.5q84 0 150.5 -25.5t116.5 -73.5l-62 -67q-38 35 -88 56.5t-117 21.5q-60 0 -111 -21.5t-88 -59.5t-57.5 -89t-20.5 -109q0 -59 20.5 -110t58 -88.5t91 -59t119.5 -21.5
q52 0 103 12.5t86 40.5v190h-201v87h291v-318q-49 -51 -124 -75.5t-155 -24.5z" />
    <glyph glyph-name="H" unicode="H" horiz-adv-x="763" 
d="M94 710h93v-303h389v303h93v-710h-93v320h-389v-320h-93v710z" />
    <glyph glyph-name="I" unicode="I" horiz-adv-x="281" 
d="M94 710h93v-710h-93v710z" />
    <glyph glyph-name="J" unicode="J" horiz-adv-x="469" 
d="M186 -12q-63 0 -108 23t-72 55l61 65q22 -25 49 -41t68 -16q48 0 76.5 28t28.5 96v512h93v-516q0 -53 -15 -92t-41.5 -64.5t-62 -37.5t-77.5 -12z" />
    <glyph glyph-name="K" unicode="K" horiz-adv-x="671" 
d="M186 338v-338h-92v710h92v-308l310 308h121l-338 -338l415 -372h-131z" />
    <glyph glyph-name="L" unicode="L" horiz-adv-x="548" 
d="M94 710h93v-622h343v-88h-436v710z" />
    <glyph glyph-name="M" unicode="M" horiz-adv-x="885" 
d="M94 710h85l263 -416l264 416h85v-710h-92v530l-223 -351h-66l-223 352v-531h-93v710z" />
    <glyph glyph-name="N" unicode="N" horiz-adv-x="794" 
d="M619 0l-432 553v-553h-93v710h81l432 -553v553h92v-710h-80z" />
    <glyph glyph-name="O" unicode="O" horiz-adv-x="825" 
d="M412 76q58 0 108.5 21.5t87 59.5t57.5 88.5t21 109.5q0 58 -21 109t-57.5 89t-87 59.5t-108.5 21.5t-108 -21.5t-86.5 -59.5t-57.5 -89t-21 -109q0 -59 21 -109.5t57.5 -88.5t86.5 -59.5t108 -21.5zM412 -12q-77 0 -143.5 28.5t-116.5 78t-78.5 116.5t-28.5 144t28.5 144
t78.5 116.5t116.5 78t143.5 28.5t144 -28.5t116.5 -78t78 -116.5t28.5 -144t-28.5 -144t-78 -116.5t-116.5 -78t-144 -28.5z" />
    <glyph glyph-name="P" unicode="P" horiz-adv-x="586" 
d="M555 484q0 -48 -17.5 -89t-49 -71.5t-77 -47.5t-100.5 -17h-124v-259h-93v710h217q55 0 100.5 -17.5t77 -47.5t49 -71.5t17.5 -89.5zM463 484q0 30 -10 55t-29.5 44t-47.5 29.5t-65 10.5h-124v-278h124q37 0 65 10.5t47.5 29.5t29.5 44t10 55z" />
    <glyph glyph-name="Q" unicode="Q" horiz-adv-x="832" 
d="M412 -12q-77 0 -143.5 28.5t-116.5 78t-78.5 116.5t-28.5 144t28.5 144t78.5 116.5t116.5 78t143.5 28.5t144 -28.5t116.5 -78t78 -116.5t28.5 -144q0 -68 -22 -126.5t-60 -106.5l72 -66l-57 -64l-77 70q-46 -35 -103 -54.5t-120 -19.5zM412 76q89 0 157 48l-113 105
l57 64l117 -109q26 35 41 78.5t15 92.5q0 58 -21 109t-57.5 89t-87 59.5t-108.5 21.5t-108 -21.5t-86.5 -59.5t-57.5 -89t-21 -109q0 -59 21 -109.5t57.5 -88.5t86.5 -59.5t108 -21.5z" />
    <glyph glyph-name="R" unicode="R" horiz-adv-x="635" 
d="M94 710h242q49 0 88.5 -14t67 -40t42 -62t14.5 -80q0 -78 -46.5 -128t-129.5 -62l274 -324h-117l-273 323h-69v-323h-93v710zM325 406q61 0 95.5 27t34.5 81t-34.5 82t-95.5 28h-138v-218h138z" />
    <glyph glyph-name="S" unicode="S" horiz-adv-x="554" 
d="M284 -12q-44 0 -83 9.5t-71 27t-56.5 41t-37.5 50.5l74 56q29 -45 72.5 -71t103.5 -26q28 0 52 7.5t42 21t28 33t10 44.5q0 43 -26 72t-76 48l-94 36q-84 31 -123 77t-39 119q0 43 17 78t47 60t70.5 38t88.5 13q67 0 120.5 -27t85.5 -70l-67 -60q-28 32 -61.5 51
t-79.5 19q-26 0 -49.5 -7t-41 -20t-27.5 -31t-10 -40q0 -45 26 -69.5t81 -44.5l85 -33q80 -30 123 -78t43 -127q0 -45 -17 -81.5t-47 -62t-71.5 -39.5t-91.5 -14z" />
    <glyph glyph-name="T" unicode="T" horiz-adv-x="567" 
d="M238 622h-221v88h533v-88h-221v-622h-91v622z" />
    <glyph glyph-name="U" unicode="U" horiz-adv-x="726" 
d="M363 -12q-62 0 -113 20t-87.5 57.5t-57 91t-20.5 119.5v434h93v-436q0 -96 50.5 -147t134.5 -51t134.5 51t50.5 147v436h93v-434q0 -66 -20.5 -119.5t-57 -91t-88 -57.5t-112.5 -20z" />
    <glyph glyph-name="V" unicode="V" horiz-adv-x="701" 
d="M8 710h103l239 -565l240 565h101l-302 -710h-78z" />
    <glyph glyph-name="W" unicode="W" horiz-adv-x="1000" 
d="M17 710h97l169 -547l176 547h80l177 -547l168 547h99l-222 -710h-81l-180 558l-180 -558h-82z" />
    <glyph glyph-name="X" unicode="X" horiz-adv-x="670" 
d="M4 0l274 359l-263 351h111l209 -277l209 277h111l-262 -351l273 -359h-113l-218 284l-217 -284h-114z" />
    <glyph glyph-name="Y" unicode="Y" horiz-adv-x="674" 
d="M291 301l-276 409h111l211 -316l212 316h111l-277 -410v-300h-92v301z" />
    <glyph glyph-name="Z" unicode="Z" horiz-adv-x="587" 
d="M34 62l385 560h-374v88h497v-62l-385 -560h395v-88h-518v62z" />
    <glyph glyph-name="bracketleft" unicode="[" horiz-adv-x="305" 
d="M92 800h187v-72h-109v-816h109v-72h-187v960z" />
    <glyph glyph-name="bracketright" unicode="]" horiz-adv-x="305" 
d="M213 -160h-187v72h109v816h-109v72h187v-960z" />
    <glyph glyph-name="underscore" unicode="_" horiz-adv-x="532" 
d="M54 0h424v-73h-424v73z" />
    <glyph glyph-name="grave" unicode="`" 
d="M26 574l-125 156h109l88 -156h-72z" />
    <glyph glyph-name="a" unicode="a" horiz-adv-x="624" 
d="M294 -10q-56 0 -102.5 20.5t-79.5 56t-51.5 83t-18.5 100.5t18.5 100.5t51.5 83t79.5 56t102.5 20.5q49 0 91 -16.5t72 -48.5v55h86v-500h-86v55q-30 -32 -72 -48.5t-91 -16.5zM301 69q56 0 95 24t61 59v197q-22 35 -61 58.5t-95 23.5q-38 0 -69 -14t-53.5 -39t-35 -58
t-12.5 -70q0 -38 12.5 -70.5t35 -57.5t53.5 -39t69 -14z" />
    <glyph glyph-name="b" unicode="b" horiz-adv-x="624" 
d="M330 -10q-48 0 -90 16.5t-73 48.5v-55h-86v730h86v-285q31 32 73 48.5t90 16.5q56 0 102.5 -20.5t79.5 -56t51.5 -83t18.5 -100.5t-18.5 -100.5t-51.5 -83t-79.5 -56t-102.5 -20.5zM323 69q38 0 69 14t53.5 39t35 57.5t12.5 70.5q0 37 -12.5 70t-35 58t-53.5 39t-69 14
q-56 0 -95 -23.5t-61 -58.5v-197q22 -35 61 -59t95 -24z" />
    <glyph glyph-name="c" unicode="c" horiz-adv-x="565" 
d="M304 -10q-57 0 -105 20t-83 55.5t-54.5 83t-19.5 101.5t19.5 101.5t54.5 83t83 55.5t105 20q78 0 138 -37t93 -97l-75 -42q-21 43 -61.5 69.5t-94.5 26.5q-39 0 -71 -14t-55.5 -38.5t-36 -57.5t-12.5 -70q0 -38 12.5 -70.5t36 -57t55.5 -38.5t71 -14q54 0 94.5 26.5
t61.5 69.5l75 -42q-33 -60 -93 -97t-138 -37z" />
    <glyph glyph-name="d" unicode="d" horiz-adv-x="624" 
d="M294 -10q-56 0 -102.5 20.5t-79.5 56t-51.5 83t-18.5 100.5t18.5 100.5t51.5 83t79.5 56t102.5 20.5q49 0 91 -16.5t72 -48.5v285h86v-730h-86v55q-30 -32 -72 -48.5t-91 -16.5zM301 69q56 0 95 24t61 59v197q-22 35 -61 58.5t-95 23.5q-38 0 -69 -14t-53.5 -39t-35 -58
t-12.5 -70q0 -38 12.5 -70.5t35 -57.5t53.5 -39t69 -14z" />
    <glyph glyph-name="e" unicode="e" horiz-adv-x="581" 
d="M301 -10q-58 0 -106 20t-82 55t-52.5 82.5t-18.5 102.5t19 102.5t53.5 82.5t82.5 55t105 20q49 0 92 -16.5t75.5 -49t51.5 -79t19 -106.5v-12.5t-1 -13.5h-410q1 -35 14.5 -65t36 -52t54 -34.5t68.5 -12.5q58 0 95.5 23.5t60.5 63.5l68 -47q-34 -55 -90.5 -87t-134.5 -32
zM452 303q-5 31 -18.5 55t-34 41t-46.5 26t-54 9t-55 -9t-49 -25.5t-38 -41t-22 -55.5h317z" />
    <glyph glyph-name="f" unicode="f" horiz-adv-x="401" 
d="M134 421h-118v79h118v73q0 74 43 118.5t118 44.5q36 0 61.5 -8t42.5 -17l-32 -72q-11 5 -29 11.5t-39 6.5q-38 0 -58.5 -24t-20.5 -65v-68h170v-79h-170v-421h-86v421z" />
    <glyph glyph-name="g" unicode="g" horiz-adv-x="625" 
d="M294 -204q-77 0 -135 26t-90 66l59 60q30 -35 71 -54.5t95 -19.5q30 0 59 9t52.5 28.5t38 49.5t14.5 72v38q-30 -33 -72.5 -49.5t-90.5 -16.5q-55 0 -101.5 20t-80.5 54t-52.5 80t-18.5 99q0 52 19 98t52.5 80.5t80 54t101.5 19.5q48 0 90.5 -16.5t72.5 -48.5v55h86v-470
q0 -60 -20 -104t-54.5 -73t-79.5 -43t-96 -14zM302 85q56 0 95 23.5t61 58.5v182q-22 35 -61 58.5t-95 23.5q-37 0 -68.5 -13.5t-54.5 -36.5t-35.5 -55t-12.5 -68q0 -37 13 -68.5t35.5 -55t54 -36.5t68.5 -13z" />
    <glyph glyph-name="h" unicode="h" horiz-adv-x="589" 
d="M81 0v730h86v-293q26 38 68 55.5t90 17.5q42 0 77 -14t60 -40.5t39 -64t14 -84.5v-307h-85v294q0 66 -33.5 101.5t-91.5 35.5q-53 0 -88 -27.5t-50 -71.5v-332h-86z" />
    <glyph glyph-name="i" unicode="i" horiz-adv-x="249" 
d="M125 614q-26 0 -44 17.5t-18 43.5q0 25 18 43t44 18t43.5 -18t17.5 -43q0 -26 -17.5 -43.5t-43.5 -17.5zM81 500h86v-500h-86v500z" />
    <glyph glyph-name="j" unicode="j" horiz-adv-x="257" 
d="M32 -199q-21 0 -44 4.5t-32 9.5l19 73q8 -3 19.5 -6t29.5 -3q26 0 45.5 18.5t19.5 66.5v536h86v-546q0 -39 -11.5 -68t-31 -47.5t-45.5 -28t-55 -9.5zM133 614q-26 0 -44 17.5t-18 43.5q0 25 18 43t44 18t43.5 -18t17.5 -43q0 -26 -17.5 -43.5t-43.5 -17.5z" />
    <glyph glyph-name="k" unicode="k" horiz-adv-x="539" 
d="M167 250v-250h-86v730h86v-425l218 195h114l-246 -221l301 -279h-116z" />
    <glyph glyph-name="l" unicode="l" horiz-adv-x="249" 
d="M81 730h86v-730h-86v730z" />
    <glyph glyph-name="m" unicode="m" horiz-adv-x="885" 
d="M725 293q0 64 -30 101t-84 37q-47 0 -78.5 -27t-45.5 -71q1 -7 1.5 -13t0.5 -13v-307h-86v293q0 64 -30 101t-83 37q-45 0 -77 -24.5t-46 -63.5v-343h-86v500h86v-53q26 33 64.5 48t78.5 15q47 0 85 -21.5t61 -60.5q30 44 75 63t93 19q89 0 138 -55.5t49 -147.5v-307h-86
v293z" />
    <glyph glyph-name="n" unicode="n" horiz-adv-x="589" 
d="M81 500h86v-63q26 38 68 55.5t90 17.5q42 0 77 -14t60 -40.5t39 -64t14 -84.5v-307h-85v294q0 66 -33.5 101.5t-91.5 35.5q-53 0 -88 -27.5t-50 -71.5v-332h-86v500z" />
    <glyph glyph-name="o" unicode="o" horiz-adv-x="606" 
d="M303 -10q-57 0 -105 20.5t-83 55.5t-54.5 82.5t-19.5 101.5t19.5 101.5t54.5 82.5t83 55.5t105 20.5q56 0 104 -20.5t83 -55.5t54.5 -82.5t19.5 -101.5t-19.5 -101.5t-54.5 -82.5t-83 -55.5t-104 -20.5zM303 70q39 0 71 14t54.5 38.5t35 57t12.5 70.5q0 37 -12.5 70
t-35 57.5t-54.5 38.5t-71 14t-71 -14t-55 -38.5t-35.5 -57.5t-12.5 -70q0 -38 12.5 -70.5t35.5 -57t55 -38.5t71 -14z" />
    <glyph glyph-name="p" unicode="p" horiz-adv-x="624" 
d="M81 500h86v-55q31 32 73 48.5t90 16.5q56 0 102.5 -20.5t79.5 -56t51.5 -83t18.5 -100.5t-18.5 -100.5t-51.5 -83t-79.5 -56t-102.5 -20.5q-48 0 -90 16.5t-73 48.5v-249h-86v694zM323 69q38 0 69 14t53.5 39t35 57.5t12.5 70.5q0 37 -12.5 70t-35 58t-53.5 39t-69 14
q-56 0 -95 -23.5t-61 -58.5v-197q22 -35 61 -59t95 -24z" />
    <glyph glyph-name="q" unicode="q" horiz-adv-x="624" 
d="M457 55q-30 -32 -72 -48.5t-91 -16.5q-56 0 -102.5 20.5t-79.5 56t-51.5 83t-18.5 100.5t18.5 100.5t51.5 83t79.5 56t102.5 20.5q49 0 91 -16.5t72 -48.5v55h86v-694h-86v249zM301 69q56 0 95 24t61 59v197q-22 35 -61 58.5t-95 23.5q-38 0 -69 -14t-53.5 -39t-35 -58
t-12.5 -70q0 -38 12.5 -70.5t35 -57.5t53.5 -39t69 -14z" />
    <glyph glyph-name="r" unicode="r" horiz-adv-x="359" 
d="M81 500h86v-74q7 15 21 29.5t31.5 25.5t38.5 17.5t44 6.5q13 0 23.5 -1.5t20.5 -3.5l-11 -86q-11 4 -21.5 5t-21.5 1q-38 0 -74 -24.5t-51 -71.5v-324h-86v500z" />
    <glyph glyph-name="s" unicode="s" horiz-adv-x="450" 
d="M232 -10q-67 0 -120 28.5t-76 87.5l70 39q14 -38 49.5 -58.5t77.5 -20.5q36 0 61.5 17.5t25.5 49.5q0 27 -19 45t-68 33l-50 16q-62 18 -93.5 55.5t-31.5 90.5q0 32 13.5 57.5t37 43t54.5 27t67 9.5q56 0 98 -22.5t67 -64.5l-64 -44q-17 24 -42.5 40.5t-61.5 16.5
q-32 0 -57.5 -16t-25.5 -44q0 -23 14.5 -41t56.5 -31l55 -17q65 -20 100.5 -55t35.5 -92q0 -36 -13 -64t-36.5 -47t-55.5 -29t-69 -10z" />
    <glyph glyph-name="t" unicode="t" horiz-adv-x="415" 
d="M295 -5q-32 0 -60 9.5t-49.5 28t-34 47.5t-12.5 68v273h-126v79h126v142h86v-142h155v-79h-155v-262q0 -48 23 -67.5t57 -19.5q25 0 43 6t29 13l26 -73q-16 -8 -43 -15.5t-65 -7.5z" />
    <glyph glyph-name="u" unicode="u" horiz-adv-x="579" 
d="M498 0h-86v63q-26 -38 -67.5 -55.5t-83.5 -17.5q-41 0 -75.5 14t-59.5 40.5t-38.5 64t-13.5 84.5v307h86v-294q0 -66 32 -101.5t88 -35.5q48 0 82 27.5t50 71.5v332h86v-500z" />
    <glyph glyph-name="v" unicode="v" horiz-adv-x="546" 
d="M6 500h96l171 -379l171 379h96l-231 -500h-72z" />
    <glyph glyph-name="w" unicode="w" horiz-adv-x="763" 
d="M381 359l-123 -359h-76l-170 500h90l121 -365l125 365h66l125 -365l121 365h91l-170 -500h-76z" />
    <glyph glyph-name="x" unicode="x" horiz-adv-x="530" 
d="M265 189l-152 -189h-107l205 253l-188 247h104l138 -181l137 181h105l-189 -247l205 -253h-106z" />
    <glyph glyph-name="y" unicode="y" horiz-adv-x="547" 
d="M125 -194l102 220l-219 474h95l172 -380l171 380h96l-321 -694h-96z" />
    <glyph glyph-name="z" unicode="z" horiz-adv-x="484" 
d="M40 68l286 353h-282v79h393v-69l-286 -352h295v-79h-406v68z" />
    <glyph glyph-name="braceleft" unicode="{" horiz-adv-x="316" 
d="M230 -160q-71 0 -99 36.5t-28 106.5v230q0 34 -10.5 52.5t-47.5 18.5h-15v72h15q37 0 47.5 17.5t10.5 52.5v231q0 70 27.5 106.5t98.5 36.5h61v-72h-48q-38 0 -49.5 -17.5t-11.5 -55.5v-225q0 -47 -11.5 -71.5t-42.5 -38.5q31 -14 42.5 -39t11.5 -72v-224q0 -39 11.5 -56
t49.5 -17h48v-72h-60z" />
    <glyph glyph-name="bar" unicode="|" horiz-adv-x="262" 
d="M92 710h79v-820h-79v820z" />
    <glyph glyph-name="braceright" unicode="}" horiz-adv-x="316" 
d="M26 -160v72h48q38 0 49.5 17t11.5 56v224q0 47 11.5 72t42.5 39q-31 14 -42.5 38.5t-11.5 71.5v225q0 38 -11.5 55.5t-49.5 17.5h-48v72h61q71 0 98.5 -36.5t27.5 -106.5v-231q0 -35 10.5 -52.5t47.5 -17.5h15v-72h-15q-37 0 -47.5 -18.5t-10.5 -52.5v-230
q0 -70 -28 -106.5t-99 -36.5h-60z" />
    <glyph glyph-name="uni00A0" unicode="&#xa0;" horiz-adv-x="241" 
 />
    <glyph glyph-name="exclamdown" unicode="&#xa1;" horiz-adv-x="253" 
d="M170 91v-285h-87v285l17 191h53zM59 376v124h124v-124h-124z" />
    <glyph glyph-name="sterling" unicode="&#xa3;" horiz-adv-x="559" 
d="M51 391h62q-9 32 -15.5 63.5t-6.5 61.5q0 44 15.5 82t44 65.5t68.5 43t90 15.5q39 0 73 -12t60.5 -32.5t45.5 -49t30 -61.5l-72 -37q-9 21 -21 40.5t-28.5 34.5t-38 24t-50.5 9q-60 0 -95.5 -34t-35.5 -90q0 -30 7.5 -60.5t17.5 -62.5h191v-55h-173q10 -32 17 -63.5
t7 -64.5q0 -75 -37 -124h310v-84h-466v84h62q22 23 34.5 52t12.5 67q0 27 -9.5 61t-20.5 72h-79v55z" />
    <glyph glyph-name="yen" unicode="&#xa5;" horiz-adv-x="673" 
d="M86 354h174l-230 356h103l203 -324l203 324h104l-229 -356h173v-54h-207v-75h207v-54h-207v-171h-86v171h-208v54h208v75h-208v54z" />
    <glyph glyph-name="dieresis" unicode="&#xa8;" 
d="M-112 594q-25 0 -42 17t-17 41t17 41.5t42 17.5q24 0 41 -17.5t17 -41.5t-17 -41t-41 -17zM113 594q-24 0 -41.5 17t-17.5 41t17.5 41.5t41.5 17.5t41 -17.5t17 -41.5t-17 -41t-41 -17z" />
    <glyph glyph-name="copyright" unicode="&#xa9;" horiz-adv-x="824" 
d="M411 59q61 0 115 23.5t94.5 63.5t64 94t23.5 115t-23.5 115t-64 94t-94.5 63.5t-115 23.5q-60 0 -114 -23.5t-94 -63.5t-63.5 -94t-23.5 -115t23.5 -115t63.5 -94t94 -63.5t114 -23.5zM411 -12q-75 0 -142 29t-116.5 79t-78.5 116.5t-29 142.5t29 142.5t78.5 116.5
t116.5 79t142 29q76 0 143 -29t117 -79t79 -116.5t29 -142.5t-29 -142.5t-79 -116.5t-117 -79t-143 -29zM414 163q-40 0 -75 15t-61.5 41t-41.5 61t-15 75t15 75t41.5 61.5t61.5 41.5t75 15q57 0 101.5 -26.5t68.5 -71.5l-61 -34q-17 29 -44.5 46.5t-64.5 17.5
q-26 0 -48 -10t-38.5 -27t-26 -40t-9.5 -48q0 -26 9.5 -48.5t26 -39t38.5 -26.5t48 -10q37 0 64.5 17t44.5 46l61 -34q-24 -44 -68.5 -70.5t-101.5 -26.5z" />
    <glyph glyph-name="guillemotleft" unicode="&#xab;" horiz-adv-x="477" 
d="M425 54l-58 -38l-152 234l152 234l58 -38l-114 -196zM252 54l-58 -38l-152 234l152 234l58 -38l-114 -196z" />
    <glyph glyph-name="uni00AD" unicode="&#xad;" horiz-adv-x="386" 
d="M65 323h255v-86h-255v86z" />
    <glyph glyph-name="macron" unicode="&#xaf;" 
d="M-161 710h322v-69h-322v69z" />
    <glyph glyph-name="degree" unicode="&#xb0;" horiz-adv-x="347" 
d="M174 517q28 0 47.5 19.5t19.5 47.5t-19.5 48t-47.5 20q-29 0 -48.5 -20t-19.5 -48t19.5 -47.5t48.5 -19.5zM174 455q-27 0 -50.5 10t-41.5 27.5t-28 41t-10 50.5t10 50.5t28 41.5t41.5 28t50.5 10t50.5 -10t41 -28t27.5 -41.5t10 -50.5t-10 -50.5t-27.5 -41t-41 -27.5
t-50.5 -10z" />
    <glyph glyph-name="acute" unicode="&#xb4;" 
d="M-11 730h109l-125 -156h-72z" />
    <glyph glyph-name="periodcentered" unicode="&#xb7;" horiz-adv-x="253" 
d="M59 205v124h124v-124h-124z" />
    <glyph glyph-name="cedilla" unicode="&#xb8;" 
d="M-92 -137q33 -14 69 -14q20 0 38.5 7t18.5 26q0 14 -11.5 20.5t-27.5 6.5q-14 0 -25 -2.5t-21 -6.5l-31 22l49 81h55l-32 -52q16 7 38 7q32 0 54 -19t22 -53q0 -44 -34.5 -67t-87.5 -23q-22 0 -44.5 4t-42.5 13z" />
    <glyph glyph-name="guillemotright" unicode="&#xbb;" horiz-adv-x="477" 
d="M338 250l-114 196l58 38l152 -234l-152 -234l-58 38zM165 250l-114 196l58 38l152 -234l-152 -234l-58 38z" />
    <glyph glyph-name="questiondown" unicode="&#xbf;" horiz-adv-x="517" 
d="M263 -204q-47 0 -86.5 16.5t-68 45t-44.5 65t-16 77.5q0 34 9.5 61t24.5 49t33.5 39t36.5 31q14 11 28.5 21.5t26 22t18.5 24t7 26.5v8h86v-20q0 -20 -8.5 -38.5t-22 -35.5t-29.5 -31t-31 -25q-21 -15 -38 -29t-29.5 -29t-19 -32.5t-6.5 -39.5q0 -26 10.5 -48t28 -38.5
t41 -26t50.5 -9.5q52 0 93 25t64 67l70 -42q-15 -29 -38 -53.5t-52.5 -42.5t-64 -28t-73.5 -10zM208 376v124h124v-124h-124z" />
    <glyph glyph-name="Agrave" unicode="&#xc0;" horiz-adv-x="718" 
d="M320 710h77l315 -710h-97l-92 207h-331l-90 -207h-96zM229 291h257l-129 293zM319 768l-115 137h109l78 -137h-72z" />
    <glyph glyph-name="Aacute" unicode="&#xc1;" horiz-adv-x="718" 
d="M320 710h77l315 -710h-97l-92 207h-331l-90 -207h-96zM229 291h257l-129 293zM403 905h109l-115 -137h-72z" />
    <glyph glyph-name="Acircumflex" unicode="&#xc2;" horiz-adv-x="718" 
d="M320 710h77l315 -710h-97l-92 207h-331l-90 -207h-96zM229 291h257l-129 293zM312 905h93l127 -137h-93l-81 83l-80 -83h-93z" />
    <glyph glyph-name="Atilde" unicode="&#xc3;" horiz-adv-x="718" 
d="M320 710h77l315 -710h-97l-92 207h-331l-90 -207h-96zM229 291h257l-129 293zM188 804q8 43 37 69t69 26q19 0 37.5 -7t34.5 -15t30.5 -15t26.5 -7q33 0 43 44h66l-4 -19q-8 -42 -36.5 -68t-69.5 -26q-20 0 -38 7t-34 15l-30 15t-26 7q-32 0 -44 -44h-65z" />
    <glyph glyph-name="Adieresis" unicode="&#xc4;" horiz-adv-x="718" 
d="M320 710h77l315 -710h-97l-92 207h-331l-90 -207h-96zM229 291h257l-129 293zM246 785q-25 0 -42 17t-17 41t17 41.5t42 17.5q24 0 41 -17.5t17 -41.5t-17 -41t-41 -17zM471 785q-24 0 -41.5 17t-17.5 41t17.5 41.5t41.5 17.5t41 -17.5t17 -41.5t-17 -41t-41 -17z" />
    <glyph glyph-name="Aring" unicode="&#xc5;" horiz-adv-x="718" 
d="M320 710h77l315 -710h-97l-92 207h-331l-90 -207h-96zM229 291h257l-129 293zM358 753q-25 0 -47 9.5t-38.5 26t-26 38t-9.5 46.5t9.5 46.5t26 38t38.5 26t47 9.5t47 -9.5t38.5 -26t26.5 -38t10 -46.5t-10 -46.5t-26.5 -38t-38.5 -26t-47 -9.5zM358 804q29 0 50 20t21 49
t-21 49.5t-50 20.5t-49 -20.5t-20 -49.5t20 -49t49 -20z" />
    <glyph glyph-name="AE" unicode="&#xc6;" horiz-adv-x="914" 
d="M451 207h-248l-123 -207h-103l425 710h463v-88h-321v-215h261v-88h-261v-231h321v-88h-414v207zM253 291h198v331h-1z" />
    <glyph glyph-name="Ccedilla" unicode="&#xc7;" horiz-adv-x="755" 
d="M412 -12q-77 0 -143.5 28.5t-116.5 78t-78.5 116.5t-28.5 144t28.5 144t78.5 116.5t116.5 78t143.5 28.5q102 0 184 -46.5t130 -125.5l-78 -47q-37 60 -97.5 95.5t-138.5 35.5q-58 0 -108 -21.5t-86.5 -59.5t-57.5 -89t-21 -109q0 -59 21 -109.5t57.5 -88.5t86.5 -59.5
t108 -21.5q78 0 138.5 35.5t97.5 95.5l78 -47q-48 -79 -130 -125.5t-184 -46.5zM322 -137q33 -14 68 -14q20 0 38.5 7t18.5 26q0 14 -11 20.5t-28 6.5q-14 0 -25 -2.5t-21 -6.5l-30 22l48 81h55l-32 -52q16 7 38 7q32 0 54 -19t22 -53q0 -44 -34.5 -67t-87.5 -23
q-22 0 -44.5 4t-42.5 13z" />
    <glyph glyph-name="Egrave" unicode="&#xc8;" horiz-adv-x="557" 
d="M94 710h414v-88h-321v-215h261v-88h-261v-231h321v-88h-414v710zM262 768l-115 137h109l78 -137h-72z" />
    <glyph glyph-name="Eacute" unicode="&#xc9;" horiz-adv-x="557" 
d="M94 710h414v-88h-321v-215h261v-88h-261v-231h321v-88h-414v710zM345 905h109l-115 -137h-72z" />
    <glyph glyph-name="Ecircumflex" unicode="&#xca;" horiz-adv-x="557" 
d="M94 710h414v-88h-321v-215h261v-88h-261v-231h321v-88h-414v710zM255 905h93l127 -137h-93l-81 83l-80 -83h-93z" />
    <glyph glyph-name="Edieresis" unicode="&#xcb;" horiz-adv-x="557" 
d="M94 710h414v-88h-321v-215h261v-88h-261v-231h321v-88h-414v710zM189 785q-25 0 -42 17t-17 41t17 41.5t42 17.5q24 0 41 -17.5t17 -41.5t-17 -41t-41 -17zM414 785q-24 0 -41.5 17t-17.5 41t17.5 41.5t41.5 17.5t41 -17.5t17 -41.5t-17 -41t-41 -17z" />
    <glyph glyph-name="Igrave" unicode="&#xcc;" horiz-adv-x="281" 
d="M94 710h93v-710h-93v710zM102 768l-115 137h109l78 -137h-72z" />
    <glyph glyph-name="Iacute" unicode="&#xcd;" horiz-adv-x="281" 
d="M94 710h93v-710h-93v710zM185 905h109l-115 -137h-72z" />
    <glyph glyph-name="Icircumflex" unicode="&#xce;" horiz-adv-x="281" 
d="M94 710h93v-710h-93v710zM95 905h93l127 -137h-93l-81 83l-80 -83h-93z" />
    <glyph glyph-name="Idieresis" unicode="&#xcf;" horiz-adv-x="281" 
d="M94 710h93v-710h-93v710zM29 785q-25 0 -42 17t-17 41t17 41.5t42 17.5q24 0 41 -17.5t17 -41.5t-17 -41t-41 -17zM254 785q-24 0 -41.5 17t-17.5 41t17.5 41.5t41.5 17.5t41 -17.5t17 -41.5t-17 -41t-41 -17z" />
    <glyph glyph-name="Eth" unicode="&#xd0;" horiz-adv-x="729" 
d="M101 710h204q82 0 151 -27t119.5 -74.5t79 -112.5t28.5 -141t-28.5 -141t-79 -112.5t-119.5 -74.5t-151 -27h-204v710zM305 87q64 0 116.5 20t89.5 56t57.5 85t20.5 107t-20.5 107t-57.5 85t-89.5 56t-116.5 20h-111v-536h111zM28 401h326v-82h-326v82z" />
    <glyph glyph-name="Ntilde" unicode="&#xd1;" horiz-adv-x="794" 
d="M619 0l-432 553v-553h-93v710h81l432 -553v553h92v-710h-80zM223 804q8 43 37 69t69 26q19 0 37.5 -7t34.5 -15t30.5 -15t26.5 -7q33 0 43 44h66l-4 -19q-8 -42 -36.5 -68t-69.5 -26q-20 0 -38 7t-34 15l-30 15t-26 7q-32 0 -44 -44h-65z" />
    <glyph glyph-name="Ograve" unicode="&#xd2;" horiz-adv-x="825" 
d="M412 76q58 0 108.5 21.5t87 59.5t57.5 88.5t21 109.5q0 58 -21 109t-57.5 89t-87 59.5t-108.5 21.5t-108 -21.5t-86.5 -59.5t-57.5 -89t-21 -109q0 -59 21 -109.5t57.5 -88.5t86.5 -59.5t108 -21.5zM412 -12q-77 0 -143.5 28.5t-116.5 78t-78.5 116.5t-28.5 144t28.5 144
t78.5 116.5t116.5 78t143.5 28.5t144 -28.5t116.5 -78t78 -116.5t28.5 -144t-28.5 -144t-78 -116.5t-116.5 -78t-144 -28.5zM373 768l-115 137h109l78 -137h-72z" />
    <glyph glyph-name="Oacute" unicode="&#xd3;" horiz-adv-x="825" 
d="M412 76q58 0 108.5 21.5t87 59.5t57.5 88.5t21 109.5q0 58 -21 109t-57.5 89t-87 59.5t-108.5 21.5t-108 -21.5t-86.5 -59.5t-57.5 -89t-21 -109q0 -59 21 -109.5t57.5 -88.5t86.5 -59.5t108 -21.5zM412 -12q-77 0 -143.5 28.5t-116.5 78t-78.5 116.5t-28.5 144t28.5 144
t78.5 116.5t116.5 78t143.5 28.5t144 -28.5t116.5 -78t78 -116.5t28.5 -144t-28.5 -144t-78 -116.5t-116.5 -78t-144 -28.5zM457 905h109l-115 -137h-72z" />
    <glyph glyph-name="Ocircumflex" unicode="&#xd4;" horiz-adv-x="825" 
d="M412 76q58 0 108.5 21.5t87 59.5t57.5 88.5t21 109.5q0 58 -21 109t-57.5 89t-87 59.5t-108.5 21.5t-108 -21.5t-86.5 -59.5t-57.5 -89t-21 -109q0 -59 21 -109.5t57.5 -88.5t86.5 -59.5t108 -21.5zM412 -12q-77 0 -143.5 28.5t-116.5 78t-78.5 116.5t-28.5 144t28.5 144
t78.5 116.5t116.5 78t143.5 28.5t144 -28.5t116.5 -78t78 -116.5t28.5 -144t-28.5 -144t-78 -116.5t-116.5 -78t-144 -28.5zM366 905h93l127 -137h-93l-81 83l-80 -83h-93z" />
    <glyph glyph-name="Otilde" unicode="&#xd5;" horiz-adv-x="825" 
d="M412 76q58 0 108.5 21.5t87 59.5t57.5 88.5t21 109.5q0 58 -21 109t-57.5 89t-87 59.5t-108.5 21.5t-108 -21.5t-86.5 -59.5t-57.5 -89t-21 -109q0 -59 21 -109.5t57.5 -88.5t86.5 -59.5t108 -21.5zM412 -12q-77 0 -143.5 28.5t-116.5 78t-78.5 116.5t-28.5 144t28.5 144
t78.5 116.5t116.5 78t143.5 28.5t144 -28.5t116.5 -78t78 -116.5t28.5 -144t-28.5 -144t-78 -116.5t-116.5 -78t-144 -28.5zM242 804q8 43 37 69t69 26q19 0 37.5 -7t34.5 -15t30.5 -15t26.5 -7q33 0 43 44h66l-4 -19q-8 -42 -36.5 -68t-69.5 -26q-20 0 -38 7t-34 15l-30 15
t-26 7q-32 0 -44 -44h-65z" />
    <glyph glyph-name="Odieresis" unicode="&#xd6;" horiz-adv-x="825" 
d="M412 76q58 0 108.5 21.5t87 59.5t57.5 88.5t21 109.5q0 58 -21 109t-57.5 89t-87 59.5t-108.5 21.5t-108 -21.5t-86.5 -59.5t-57.5 -89t-21 -109q0 -59 21 -109.5t57.5 -88.5t86.5 -59.5t108 -21.5zM412 -12q-77 0 -143.5 28.5t-116.5 78t-78.5 116.5t-28.5 144t28.5 144
t78.5 116.5t116.5 78t143.5 28.5t144 -28.5t116.5 -78t78 -116.5t28.5 -144t-28.5 -144t-78 -116.5t-116.5 -78t-144 -28.5zM300 785q-25 0 -42 17t-17 41t17 41.5t42 17.5q24 0 41 -17.5t17 -41.5t-17 -41t-41 -17zM525 785q-24 0 -41.5 17t-17.5 41t17.5 41.5t41.5 17.5
t41 -17.5t17 -41.5t-17 -41t-41 -17z" />
    <glyph glyph-name="multiply" unicode="&#xd7;" horiz-adv-x="503" 
d="M53 149l143 141l-143 140l56 56l143 -140l142 140l56 -56l-143 -140l143 -141l-56 -55l-142 140l-143 -140z" />
    <glyph glyph-name="Oslash" unicode="&#xd8;" horiz-adv-x="826" 
d="M413 76q58 0 108.5 21.5t87 59.5t57.5 88.5t21 109.5q0 58 -21 109t-57.5 89t-87 59.5t-108.5 21.5t-108 -21.5t-86.5 -59.5t-57.5 -89t-21 -109q0 -59 21 -109.5t57.5 -88.5t86.5 -59.5t108 -21.5zM413 -12q-77 0 -143.5 28.5t-116.5 78t-78.5 116.5t-28.5 144t28.5 144
t78.5 116.5t116.5 78t143.5 28.5t144 -28.5t116.5 -78t78 -116.5t28.5 -144t-28.5 -144t-78 -116.5t-116.5 -78t-144 -28.5zM130 -20l-56 52l623 698l55 -51z" />
    <glyph glyph-name="Ugrave" unicode="&#xd9;" horiz-adv-x="726" 
d="M363 -12q-62 0 -113 20t-87.5 57.5t-57 91t-20.5 119.5v434h93v-436q0 -96 50.5 -147t134.5 -51t134.5 51t50.5 147v436h93v-434q0 -66 -20.5 -119.5t-57 -91t-88 -57.5t-112.5 -20zM324 768l-115 137h109l78 -137h-72z" />
    <glyph glyph-name="Uacute" unicode="&#xda;" horiz-adv-x="726" 
d="M363 -12q-62 0 -113 20t-87.5 57.5t-57 91t-20.5 119.5v434h93v-436q0 -96 50.5 -147t134.5 -51t134.5 51t50.5 147v436h93v-434q0 -66 -20.5 -119.5t-57 -91t-88 -57.5t-112.5 -20zM407 905h109l-115 -137h-72z" />
    <glyph glyph-name="Ucircumflex" unicode="&#xdb;" horiz-adv-x="726" 
d="M363 -12q-62 0 -113 20t-87.5 57.5t-57 91t-20.5 119.5v434h93v-436q0 -96 50.5 -147t134.5 -51t134.5 51t50.5 147v436h93v-434q0 -66 -20.5 -119.5t-57 -91t-88 -57.5t-112.5 -20zM317 905h93l127 -137h-93l-81 83l-80 -83h-93z" />
    <glyph glyph-name="Udieresis" unicode="&#xdc;" horiz-adv-x="726" 
d="M363 -12q-62 0 -113 20t-87.5 57.5t-57 91t-20.5 119.5v434h93v-436q0 -96 50.5 -147t134.5 -51t134.5 51t50.5 147v436h93v-434q0 -66 -20.5 -119.5t-57 -91t-88 -57.5t-112.5 -20zM251 785q-25 0 -42 17t-17 41t17 41.5t42 17.5q24 0 41 -17.5t17 -41.5t-17 -41
t-41 -17zM476 785q-24 0 -41.5 17t-17.5 41t17.5 41.5t41.5 17.5t41 -17.5t17 -41.5t-17 -41t-41 -17z" />
    <glyph glyph-name="Yacute" unicode="&#xdd;" horiz-adv-x="674" 
d="M291 301l-276 409h111l211 -316l212 316h111l-277 -410v-300h-92v301zM381 905h109l-115 -137h-72z" />
    <glyph glyph-name="Thorn" unicode="&#xde;" horiz-adv-x="595" 
d="M555 355q0 -48 -17.5 -89t-49 -71t-77 -47.5t-100.5 -17.5h-124v-130h-93v710h93v-129h124q55 0 100.5 -17.5t77 -47.5t49 -71.5t17.5 -89.5zM463 355q0 30 -10 55.5t-29.5 44t-47.5 29.5t-65 11h-124v-279h124q37 0 65 10.5t47.5 29.5t29.5 44.5t10 54.5z" />
    <glyph glyph-name="germandbls" unicode="&#xdf;" horiz-adv-x="573" 
d="M81 527q0 47 16 85.5t44 66t65.5 42.5t79.5 15t79.5 -15t65 -40.5t44 -60.5t16.5 -75q0 -49 -23 -90.5t-65 -67.5q31 -12 55.5 -31.5t40.5 -43.5t24.5 -50.5t8.5 -53.5q0 -42 -16 -79.5t-46 -66t-72.5 -45.5t-95.5 -17h-51v81h47q32 0 59 9.5t47 26.5t31 40.5t11 52.5
q0 28 -11 52t-31 41.5t-47 27t-59 9.5h-45v80h26q28 0 51 9t39.5 25t26 37.5t9.5 45.5q0 25 -9 46.5t-25 37.5t-37.5 25t-46.5 9q-26 0 -47.5 -9.5t-38 -26.5t-25.5 -41t-9 -52v-526h-86v527z" />
    <glyph glyph-name="agrave" unicode="&#xe0;" horiz-adv-x="624" 
d="M294 -10q-56 0 -102.5 20.5t-79.5 56t-51.5 83t-18.5 100.5t18.5 100.5t51.5 83t79.5 56t102.5 20.5q49 0 91 -16.5t72 -48.5v55h86v-500h-86v55q-30 -32 -72 -48.5t-91 -16.5zM301 69q56 0 95 24t61 59v197q-22 35 -61 58.5t-95 23.5q-38 0 -69 -14t-53.5 -39t-35 -58
t-12.5 -70q0 -38 12.5 -70.5t35 -57.5t53.5 -39t69 -14zM297 574l-125 156h109l88 -156h-72z" />
    <glyph glyph-name="aacute" unicode="&#xe1;" horiz-adv-x="624" 
d="M294 -10q-56 0 -102.5 20.5t-79.5 56t-51.5 83t-18.5 100.5t18.5 100.5t51.5 83t79.5 56t102.5 20.5q49 0 91 -16.5t72 -48.5v55h86v-500h-86v55q-30 -32 -72 -48.5t-91 -16.5zM301 69q56 0 95 24t61 59v197q-22 35 -61 58.5t-95 23.5q-38 0 -69 -14t-53.5 -39t-35 -58
t-12.5 -70q0 -38 12.5 -70.5t35 -57.5t53.5 -39t69 -14zM384 730h109l-125 -156h-72z" />
    <glyph glyph-name="acircumflex" unicode="&#xe2;" horiz-adv-x="624" 
d="M294 -10q-56 0 -102.5 20.5t-79.5 56t-51.5 83t-18.5 100.5t18.5 100.5t51.5 83t79.5 56t102.5 20.5q49 0 91 -16.5t72 -48.5v55h86v-500h-86v55q-30 -32 -72 -48.5t-91 -16.5zM301 69q56 0 95 24t61 59v197q-22 35 -61 58.5t-95 23.5q-38 0 -69 -14t-53.5 -39t-35 -58
t-12.5 -70q0 -38 12.5 -70.5t35 -57.5t53.5 -39t69 -14zM289 730h88l127 -152h-90l-81 94l-81 -94h-90z" />
    <glyph glyph-name="atilde" unicode="&#xe3;" horiz-adv-x="624" 
d="M294 -10q-56 0 -102.5 20.5t-79.5 56t-51.5 83t-18.5 100.5t18.5 100.5t51.5 83t79.5 56t102.5 20.5q49 0 91 -16.5t72 -48.5v55h86v-500h-86v55q-30 -32 -72 -48.5t-91 -16.5zM301 69q56 0 95 24t61 59v197q-22 35 -61 58.5t-95 23.5q-38 0 -69 -14t-53.5 -39t-35 -58
t-12.5 -70q0 -38 12.5 -70.5t35 -57.5t53.5 -39t69 -14zM162 611q8 43 37 69t69 26q20 0 38 -7t34.5 -15t30.5 -15t26 -7q33 0 43 44h66l-3 -18q-8 -43 -37 -69t-69 -26q-20 0 -38 7t-34.5 15t-30.5 15t-26 7q-33 0 -43 -44h-66z" />
    <glyph glyph-name="adieresis" unicode="&#xe4;" horiz-adv-x="624" 
d="M294 -10q-56 0 -102.5 20.5t-79.5 56t-51.5 83t-18.5 100.5t18.5 100.5t51.5 83t79.5 56t102.5 20.5q49 0 91 -16.5t72 -48.5v55h86v-500h-86v55q-30 -32 -72 -48.5t-91 -16.5zM301 69q56 0 95 24t61 59v197q-22 35 -61 58.5t-95 23.5q-38 0 -69 -14t-53.5 -39t-35 -58
t-12.5 -70q0 -38 12.5 -70.5t35 -57.5t53.5 -39t69 -14zM221 594q-25 0 -42 17t-17 41t17 41.5t42 17.5q24 0 41 -17.5t17 -41.5t-17 -41t-41 -17zM446 594q-24 0 -41.5 17t-17.5 41t17.5 41.5t41.5 17.5t41 -17.5t17 -41.5t-17 -41t-41 -17z" />
    <glyph glyph-name="aring" unicode="&#xe5;" horiz-adv-x="624" 
d="M294 -10q-56 0 -102.5 20.5t-79.5 56t-51.5 83t-18.5 100.5t18.5 100.5t51.5 83t79.5 56t102.5 20.5q49 0 91 -16.5t72 -48.5v55h86v-500h-86v55q-30 -32 -72 -48.5t-91 -16.5zM301 69q56 0 95 24t61 59v197q-22 35 -61 58.5t-95 23.5q-38 0 -69 -14t-53.5 -39t-35 -58
t-12.5 -70q0 -38 12.5 -70.5t35 -57.5t53.5 -39t69 -14zM334 541q-25 0 -47.5 9.5t-39 26t-26 38.5t-9.5 47t9.5 47t26 38.5t39 26t47.5 9.5t47 -9.5t38.5 -26t26 -38.5t9.5 -47t-9.5 -47t-26 -38.5t-38.5 -26t-47 -9.5zM334 592q28 0 48.5 20.5t20.5 49.5t-20.5 49.5
t-48.5 20.5q-29 0 -50 -20.5t-21 -49.5t21 -49.5t50 -20.5z" />
    <glyph glyph-name="ae" unicode="&#xe6;" horiz-adv-x="919" 
d="M231 -10q-43 0 -78.5 12t-61.5 34t-40.5 53t-14.5 69q0 36 15.5 65.5t42.5 51t64 33.5t80 12q47 0 80.5 -11t62.5 -27v23q0 34 -11 58t-29 39t-41.5 22t-49.5 7q-43 0 -80.5 -16t-63.5 -40l-38 72q32 27 81 45t103 18q63 0 110.5 -24.5t73.5 -73.5q34 45 87 71.5
t119 26.5q48 0 90.5 -16.5t75 -49t51.5 -79t19 -106.5v-12.5t-1 -13.5h-410q1 -35 14 -65t36 -52t54 -34.5t68 -12.5q59 0 96.5 23.5t60.5 63.5l67 -47q-33 -55 -89 -87t-132 -32q-66 0 -117 24t-86 66q-42 -48 -97 -69t-111 -21zM235 67q46 0 85.5 16t60.5 52v68
q-27 21 -59 34t-78 13q-24 0 -46 -5t-38.5 -16t-26.5 -28.5t-10 -42.5q0 -24 9.5 -41.5t25 -28.5t36 -16t41.5 -5zM637 434q-29 0 -55.5 -9t-49 -25.5t-38.5 -41t-22 -55.5h318q-10 61 -53 96t-100 35z" />
    <glyph glyph-name="ccedilla" unicode="&#xe7;" horiz-adv-x="565" 
d="M304 -10q-57 0 -105 20t-83 55.5t-54.5 83t-19.5 101.5t19.5 101.5t54.5 83t83 55.5t105 20q78 0 138 -37t93 -97l-75 -42q-21 43 -61.5 69.5t-94.5 26.5q-39 0 -71 -14t-55.5 -38.5t-36 -57.5t-12.5 -70q0 -38 12.5 -70.5t36 -57t55.5 -38.5t71 -14q54 0 94.5 26.5
t61.5 69.5l75 -42q-33 -60 -93 -97t-138 -37zM213 -137q33 -14 69 -14q20 0 38.5 7t18.5 26q0 14 -11.5 20.5t-27.5 6.5q-14 0 -25 -2.5t-21 -6.5l-31 22l49 81h55l-32 -52q16 7 38 7q32 0 54 -19t22 -53q0 -44 -34.5 -67t-87.5 -23q-22 0 -44.5 4t-42.5 13z" />
    <glyph glyph-name="egrave" unicode="&#xe8;" horiz-adv-x="581" 
d="M301 -10q-58 0 -106 20t-82 55t-52.5 82.5t-18.5 102.5t19 102.5t53.5 82.5t82.5 55t105 20q49 0 92 -16.5t75.5 -49t51.5 -79t19 -106.5v-12.5t-1 -13.5h-410q1 -35 14.5 -65t36 -52t54 -34.5t68.5 -12.5q58 0 95.5 23.5t60.5 63.5l68 -47q-34 -55 -90.5 -87t-134.5 -32
zM452 303q-5 31 -18.5 55t-34 41t-46.5 26t-54 9t-55 -9t-49 -25.5t-38 -41t-22 -55.5h317zM268 574l-125 156h109l88 -156h-72z" />
    <glyph glyph-name="eacute" unicode="&#xe9;" horiz-adv-x="581" 
d="M301 -10q-58 0 -106 20t-82 55t-52.5 82.5t-18.5 102.5t19 102.5t53.5 82.5t82.5 55t105 20q49 0 92 -16.5t75.5 -49t51.5 -79t19 -106.5v-12.5t-1 -13.5h-410q1 -35 14.5 -65t36 -52t54 -34.5t68.5 -12.5q58 0 95.5 23.5t60.5 63.5l68 -47q-34 -55 -90.5 -87t-134.5 -32
zM452 303q-5 31 -18.5 55t-34 41t-46.5 26t-54 9t-55 -9t-49 -25.5t-38 -41t-22 -55.5h317zM355 730h109l-125 -156h-72z" />
    <glyph glyph-name="ecircumflex" unicode="&#xea;" horiz-adv-x="581" 
d="M301 -10q-58 0 -106 20t-82 55t-52.5 82.5t-18.5 102.5t19 102.5t53.5 82.5t82.5 55t105 20q49 0 92 -16.5t75.5 -49t51.5 -79t19 -106.5v-12.5t-1 -13.5h-410q1 -35 14.5 -65t36 -52t54 -34.5t68.5 -12.5q58 0 95.5 23.5t60.5 63.5l68 -47q-34 -55 -90.5 -87t-134.5 -32
zM452 303q-5 31 -18.5 55t-34 41t-46.5 26t-54 9t-55 -9t-49 -25.5t-38 -41t-22 -55.5h317zM259 730h88l127 -152h-90l-81 94l-81 -94h-90z" />
    <glyph glyph-name="edieresis" unicode="&#xeb;" horiz-adv-x="581" 
d="M301 -10q-58 0 -106 20t-82 55t-52.5 82.5t-18.5 102.5t19 102.5t53.5 82.5t82.5 55t105 20q49 0 92 -16.5t75.5 -49t51.5 -79t19 -106.5v-12.5t-1 -13.5h-410q1 -35 14.5 -65t36 -52t54 -34.5t68.5 -12.5q58 0 95.5 23.5t60.5 63.5l68 -47q-34 -55 -90.5 -87t-134.5 -32
zM452 303q-5 31 -18.5 55t-34 41t-46.5 26t-54 9t-55 -9t-49 -25.5t-38 -41t-22 -55.5h317zM191 594q-25 0 -42 17t-17 41t17 41.5t42 17.5q24 0 41 -17.5t17 -41.5t-17 -41t-41 -17zM416 594q-24 0 -41.5 17t-17.5 41t17.5 41.5t41.5 17.5t41 -17.5t17 -41.5t-17 -41
t-41 -17z" />
    <glyph glyph-name="igrave" unicode="&#xec;" horiz-adv-x="249" 
d="M81 500h86v-500h-86v500zM89 574l-125 156h109l88 -156h-72z" />
    <glyph glyph-name="iacute" unicode="&#xed;" horiz-adv-x="249" 
d="M81 500h86v-500h-86v500zM176 730h109l-125 -156h-72z" />
    <glyph glyph-name="icircumflex" unicode="&#xee;" horiz-adv-x="249" 
d="M81 500h86v-500h-86v500zM80 730h88l127 -152h-90l-81 94l-81 -94h-90z" />
    <glyph glyph-name="idieresis" unicode="&#xef;" horiz-adv-x="249" 
d="M81 500h86v-500h-86v500zM26 596q-26 0 -43.5 17.5t-17.5 43.5q0 25 17.5 42.5t43.5 17.5q25 0 43 -17.5t18 -42.5q0 -26 -18 -43.5t-43 -17.5zM222 596q-26 0 -43.5 17.5t-17.5 43.5q0 25 17.5 42.5t43.5 17.5q25 0 43 -17.5t18 -42.5q0 -26 -18 -43.5t-43 -17.5z" />
    <glyph glyph-name="eth" unicode="&#xf0;" horiz-adv-x="606" 
d="M400 574l111 -164q23 -35 38.5 -74.5t15.5 -85.5q0 -54 -19.5 -101t-54.5 -82.5t-83 -56t-105 -20.5q-56 0 -104 20.5t-83 56t-54.5 82.5t-19.5 101q0 55 20.5 102.5t55.5 82.5t82 54.5t100 19.5q11 0 24 -1t29 -4l-48 70h-142v68h96l-59 88h95l59 -88h124v-68h-78z
M303 70q39 0 71 14t55 38.5t35.5 57t12.5 70.5q0 37 -12.5 70t-35.5 57.5t-55 38.5t-71 14t-71 -14t-55 -38.5t-35.5 -57.5t-12.5 -70q0 -38 12.5 -70.5t35.5 -57t55 -38.5t71 -14z" />
    <glyph glyph-name="ntilde" unicode="&#xf1;" horiz-adv-x="589" 
d="M81 500h86v-63q26 38 68 55.5t90 17.5q42 0 77 -14t60 -40.5t39 -64t14 -84.5v-307h-85v294q0 66 -33.5 101.5t-91.5 35.5q-53 0 -88 -27.5t-50 -71.5v-332h-86v500zM127 611q8 43 37 69t69 26q20 0 38 -7t34.5 -15t30.5 -15t26 -7q33 0 43 44h66l-3 -18q-8 -43 -37 -69
t-69 -26q-20 0 -38 7t-34.5 15t-30.5 15t-26 7q-33 0 -43 -44h-66z" />
    <glyph glyph-name="ograve" unicode="&#xf2;" horiz-adv-x="606" 
d="M303 -10q-57 0 -105 20.5t-83 55.5t-54.5 82.5t-19.5 101.5t19.5 101.5t54.5 82.5t83 55.5t105 20.5q56 0 104 -20.5t83 -55.5t54.5 -82.5t19.5 -101.5t-19.5 -101.5t-54.5 -82.5t-83 -55.5t-104 -20.5zM303 70q39 0 71 14t54.5 38.5t35 57t12.5 70.5q0 37 -12.5 70
t-35 57.5t-54.5 38.5t-71 14t-71 -14t-55 -38.5t-35.5 -57.5t-12.5 -70q0 -38 12.5 -70.5t35.5 -57t55 -38.5t71 -14zM267 574l-125 156h109l88 -156h-72z" />
    <glyph glyph-name="oacute" unicode="&#xf3;" horiz-adv-x="606" 
d="M303 -10q-57 0 -105 20.5t-83 55.5t-54.5 82.5t-19.5 101.5t19.5 101.5t54.5 82.5t83 55.5t105 20.5q56 0 104 -20.5t83 -55.5t54.5 -82.5t19.5 -101.5t-19.5 -101.5t-54.5 -82.5t-83 -55.5t-104 -20.5zM303 70q39 0 71 14t54.5 38.5t35 57t12.5 70.5q0 37 -12.5 70
t-35 57.5t-54.5 38.5t-71 14t-71 -14t-55 -38.5t-35.5 -57.5t-12.5 -70q0 -38 12.5 -70.5t35.5 -57t55 -38.5t71 -14zM354 730h109l-125 -156h-72z" />
    <glyph glyph-name="ocircumflex" unicode="&#xf4;" horiz-adv-x="606" 
d="M303 -10q-57 0 -105 20.5t-83 55.5t-54.5 82.5t-19.5 101.5t19.5 101.5t54.5 82.5t83 55.5t105 20.5q56 0 104 -20.5t83 -55.5t54.5 -82.5t19.5 -101.5t-19.5 -101.5t-54.5 -82.5t-83 -55.5t-104 -20.5zM303 70q39 0 71 14t54.5 38.5t35 57t12.5 70.5q0 37 -12.5 70
t-35 57.5t-54.5 38.5t-71 14t-71 -14t-55 -38.5t-35.5 -57.5t-12.5 -70q0 -38 12.5 -70.5t35.5 -57t55 -38.5t71 -14zM259 730h88l127 -152h-90l-81 94l-81 -94h-90z" />
    <glyph glyph-name="otilde" unicode="&#xf5;" horiz-adv-x="606" 
d="M303 -10q-57 0 -105 20.5t-83 55.5t-54.5 82.5t-19.5 101.5t19.5 101.5t54.5 82.5t83 55.5t105 20.5q56 0 104 -20.5t83 -55.5t54.5 -82.5t19.5 -101.5t-19.5 -101.5t-54.5 -82.5t-83 -55.5t-104 -20.5zM303 70q39 0 71 14t54.5 38.5t35 57t12.5 70.5q0 37 -12.5 70
t-35 57.5t-54.5 38.5t-71 14t-71 -14t-55 -38.5t-35.5 -57.5t-12.5 -70q0 -38 12.5 -70.5t35.5 -57t55 -38.5t71 -14zM132 611q8 43 37 69t69 26q20 0 38 -7t34.5 -15t30.5 -15t26 -7q33 0 43 44h66l-3 -18q-8 -43 -37 -69t-69 -26q-20 0 -38 7t-34.5 15t-30.5 15t-26 7
q-33 0 -43 -44h-66z" />
    <glyph glyph-name="odieresis" unicode="&#xf6;" horiz-adv-x="606" 
d="M303 -10q-57 0 -105 20.5t-83 55.5t-54.5 82.5t-19.5 101.5t19.5 101.5t54.5 82.5t83 55.5t105 20.5q56 0 104 -20.5t83 -55.5t54.5 -82.5t19.5 -101.5t-19.5 -101.5t-54.5 -82.5t-83 -55.5t-104 -20.5zM303 70q39 0 71 14t54.5 38.5t35 57t12.5 70.5q0 37 -12.5 70
t-35 57.5t-54.5 38.5t-71 14t-71 -14t-55 -38.5t-35.5 -57.5t-12.5 -70q0 -38 12.5 -70.5t35.5 -57t55 -38.5t71 -14zM191 594q-25 0 -42 17t-17 41t17 41.5t42 17.5q24 0 41 -17.5t17 -41.5t-17 -41t-41 -17zM416 594q-24 0 -41.5 17t-17.5 41t17.5 41.5t41.5 17.5
t41 -17.5t17 -41.5t-17 -41t-41 -17z" />
    <glyph glyph-name="oslash" unicode="&#xf8;" horiz-adv-x="616" 
d="M308 -10q-57 0 -105 20.5t-83 55.5t-54.5 82.5t-19.5 101.5t19.5 101.5t54.5 82.5t83 55.5t105 20.5q56 0 104 -20.5t83 -55.5t54.5 -82.5t19.5 -101.5t-19.5 -101.5t-54.5 -82.5t-83 -55.5t-104 -20.5zM308 70q39 0 71 14t54.5 38.5t35 57t12.5 70.5q0 37 -12.5 70
t-35 57.5t-54.5 38.5t-71 14t-71 -14t-55 -38.5t-35.5 -57.5t-12.5 -70q0 -38 12.5 -70.5t35.5 -57t55 -38.5t71 -14zM93 -10l-40 40l471 480l39 -39z" />
    <glyph glyph-name="ugrave" unicode="&#xf9;" horiz-adv-x="579" 
d="M498 0h-86v63q-26 -38 -67.5 -55.5t-83.5 -17.5q-41 0 -75.5 14t-59.5 40.5t-38.5 64t-13.5 84.5v307h86v-294q0 -66 32 -101.5t88 -35.5q48 0 82 27.5t50 71.5v332h86v-500zM250 574l-125 156h109l88 -156h-72z" />
    <glyph glyph-name="uacute" unicode="&#xfa;" horiz-adv-x="579" 
d="M498 0h-86v63q-26 -38 -67.5 -55.5t-83.5 -17.5q-41 0 -75.5 14t-59.5 40.5t-38.5 64t-13.5 84.5v307h86v-294q0 -66 32 -101.5t88 -35.5q48 0 82 27.5t50 71.5v332h86v-500zM336 730h109l-125 -156h-72z" />
    <glyph glyph-name="ucircumflex" unicode="&#xfb;" horiz-adv-x="579" 
d="M498 0h-86v63q-26 -38 -67.5 -55.5t-83.5 -17.5q-41 0 -75.5 14t-59.5 40.5t-38.5 64t-13.5 84.5v307h86v-294q0 -66 32 -101.5t88 -35.5q48 0 82 27.5t50 71.5v332h86v-500zM241 730h88l127 -152h-90l-81 94l-81 -94h-90z" />
    <glyph glyph-name="udieresis" unicode="&#xfc;" horiz-adv-x="579" 
d="M498 0h-86v63q-26 -38 -67.5 -55.5t-83.5 -17.5q-41 0 -75.5 14t-59.5 40.5t-38.5 64t-13.5 84.5v307h86v-294q0 -66 32 -101.5t88 -35.5q48 0 82 27.5t50 71.5v332h86v-500zM173 594q-25 0 -42 17t-17 41t17 41.5t42 17.5q24 0 41 -17.5t17 -41.5t-17 -41t-41 -17z
M398 594q-24 0 -41.5 17t-17.5 41t17.5 41.5t41.5 17.5t41 -17.5t17 -41.5t-17 -41t-41 -17z" />
    <glyph glyph-name="yacute" unicode="&#xfd;" horiz-adv-x="547" 
d="M125 -194l102 220l-219 474h95l172 -380l171 380h96l-321 -694h-96zM326 730h109l-125 -156h-72z" />
    <glyph glyph-name="thorn" unicode="&#xfe;" horiz-adv-x="624" 
d="M81 730h86v-285q31 32 73 48.5t90 16.5q56 0 102.5 -20.5t79.5 -56t51.5 -83t18.5 -100.5t-18.5 -100.5t-51.5 -83t-79.5 -56t-102.5 -20.5q-48 0 -90 16.5t-73 48.5v-249h-86v924zM323 69q38 0 69 14t53.5 39t35 57.5t12.5 70.5q0 37 -12.5 70t-35 58t-53.5 39t-69 14
q-56 0 -95 -23.5t-61 -58.5v-197q22 -35 61 -59t95 -24z" />
    <glyph glyph-name="ydieresis" unicode="&#xff;" horiz-adv-x="547" 
d="M125 -194l102 220l-219 474h95l172 -380l171 380h96l-321 -694h-96zM163 594q-25 0 -42 17t-17 41t17 41.5t42 17.5q24 0 41 -17.5t17 -41.5t-17 -41t-41 -17zM388 594q-24 0 -41.5 17t-17.5 41t17.5 41.5t41.5 17.5t41 -17.5t17 -41.5t-17 -41t-41 -17z" />
    <glyph glyph-name="Abreve" unicode="&#x102;" horiz-adv-x="718" 
d="M320 710h77l315 -710h-97l-92 207h-331l-90 -207h-96zM229 291h257l-129 293zM358 759q-33 0 -62 11t-50.5 31.5t-34 50t-12.5 65.5h58q0 -49 29.5 -75t71.5 -26t71.5 26t29.5 75h58q0 -36 -12.5 -65.5t-34 -50t-50.5 -31.5t-62 -11z" />
    <glyph glyph-name="Amacron" unicode="&#x100;" horiz-adv-x="718" 
d="M320 710h77l315 -710h-97l-92 207h-331l-90 -207h-96zM229 291h257l-129 293zM197 874h322v-69h-322v69z" />
    <glyph glyph-name="Aogonek" unicode="&#x104;" horiz-adv-x="718" 
d="M320 710h77l315 -710q-42 -26 -63 -50t-21 -50q0 -17 10.5 -24.5t25.5 -7.5q8 0 16.5 2t17.5 7l28 -56q-15 -11 -36.5 -18t-44.5 -7q-43 0 -70.5 24t-27.5 62t20 66.5t48 51.5l-92 207h-331l-90 -207h-96zM229 291h257l-129 293z" />
    <glyph glyph-name="Cacute" unicode="&#x106;" horiz-adv-x="755" 
d="M412 -12q-77 0 -143.5 28.5t-116.5 78t-78.5 116.5t-28.5 144t28.5 144t78.5 116.5t116.5 78t143.5 28.5q102 0 184 -46.5t130 -125.5l-78 -47q-37 60 -97.5 95.5t-138.5 35.5q-58 0 -108 -21.5t-86.5 -59.5t-57.5 -89t-21 -109q0 -59 21 -109.5t57.5 -88.5t86.5 -59.5
t108 -21.5q78 0 138.5 35.5t97.5 95.5l78 -47q-48 -79 -130 -125.5t-184 -46.5zM457 905h109l-115 -137h-72z" />
    <glyph glyph-name="Ccaron" unicode="&#x10c;" horiz-adv-x="755" 
d="M412 -12q-77 0 -143.5 28.5t-116.5 78t-78.5 116.5t-28.5 144t28.5 144t78.5 116.5t116.5 78t143.5 28.5q102 0 184 -46.5t130 -125.5l-78 -47q-37 60 -97.5 95.5t-138.5 35.5q-58 0 -108 -21.5t-86.5 -59.5t-57.5 -89t-21 -109q0 -59 21 -109.5t57.5 -88.5t86.5 -59.5
t108 -21.5q78 0 138.5 35.5t97.5 95.5l78 -47q-48 -79 -130 -125.5t-184 -46.5zM239 905h93l80 -84l81 84h93l-127 -137h-93z" />
    <glyph glyph-name="Ccircumflex" unicode="&#x108;" horiz-adv-x="755" 
d="M412 -12q-77 0 -143.5 28.5t-116.5 78t-78.5 116.5t-28.5 144t28.5 144t78.5 116.5t116.5 78t143.5 28.5q102 0 184 -46.5t130 -125.5l-78 -47q-37 60 -97.5 95.5t-138.5 35.5q-58 0 -108 -21.5t-86.5 -59.5t-57.5 -89t-21 -109q0 -59 21 -109.5t57.5 -88.5t86.5 -59.5
t108 -21.5q78 0 138.5 35.5t97.5 95.5l78 -47q-48 -79 -130 -125.5t-184 -46.5zM366 905h93l127 -137h-93l-81 83l-80 -83h-93z" />
    <glyph glyph-name="Cdotaccent" unicode="&#x10a;" horiz-adv-x="755" 
d="M412 -12q-77 0 -143.5 28.5t-116.5 78t-78.5 116.5t-28.5 144t28.5 144t78.5 116.5t116.5 78t143.5 28.5q102 0 184 -46.5t130 -125.5l-78 -47q-37 60 -97.5 95.5t-138.5 35.5q-58 0 -108 -21.5t-86.5 -59.5t-57.5 -89t-21 -109q0 -59 21 -109.5t57.5 -88.5t86.5 -59.5
t108 -21.5q78 0 138.5 35.5t97.5 95.5l78 -47q-48 -79 -130 -125.5t-184 -46.5zM412 785q-25 0 -42 17t-17 41t17 41.5t42 17.5q24 0 41 -17.5t17 -41.5t-17 -41t-41 -17z" />
    <glyph glyph-name="Dcaron" unicode="&#x10e;" horiz-adv-x="721" 
d="M94 710h204q82 0 151 -27t119.5 -74.5t79 -112.5t28.5 -141t-28.5 -141t-79 -112.5t-119.5 -74.5t-151 -27h-204v710zM298 87q64 0 116.5 20t89.5 56t57.5 85t20.5 107t-20.5 107t-57.5 85t-89.5 56t-116.5 20h-111v-536h111zM168 905h93l80 -84l81 84h93l-127 -137h-93z
" />
    <glyph glyph-name="Dcroat" unicode="&#x110;" horiz-adv-x="729" 
d="M101 710h204q82 0 151 -27t119.5 -74.5t79 -112.5t28.5 -141t-28.5 -141t-79 -112.5t-119.5 -74.5t-151 -27h-204v710zM305 87q64 0 116.5 20t89.5 56t57.5 85t20.5 107t-20.5 107t-57.5 85t-89.5 56t-116.5 20h-111v-536h111zM28 401h326v-82h-326v82z" />
    <glyph glyph-name="Ebreve" unicode="&#x114;" horiz-adv-x="557" 
d="M94 710h414v-88h-321v-215h261v-88h-261v-231h321v-88h-414v710zM301 759q-33 0 -62 11t-50.5 31.5t-34 50t-12.5 65.5h58q0 -49 29.5 -75t71.5 -26t71.5 26t29.5 75h58q0 -36 -12.5 -65.5t-34 -50t-50.5 -31.5t-62 -11z" />
    <glyph glyph-name="Ecaron" unicode="&#x11a;" horiz-adv-x="557" 
d="M94 710h414v-88h-321v-215h261v-88h-261v-231h321v-88h-414v710zM128 905h93l80 -84l81 84h93l-127 -137h-93z" />
    <glyph glyph-name="Emacron" unicode="&#x112;" horiz-adv-x="557" 
d="M94 710h414v-88h-321v-215h261v-88h-261v-231h321v-88h-414v710zM140 874h322v-69h-322v69z" />
    <glyph glyph-name="Eogonek" unicode="&#x118;" horiz-adv-x="557" 
d="M94 710h414v-88h-321v-215h261v-88h-261v-231h321v-88h-414v710zM441 -204q-43 0 -71 24t-28 62t22 66t52 52h92q-42 -26 -63 -50t-21 -49q0 -17 11 -24t25 -7q8 0 16.5 2t17.5 7l29 -58q-15 -11 -37 -18t-45 -7z" />
    <glyph glyph-name="Edotaccent" unicode="&#x116;" horiz-adv-x="557" 
d="M94 710h414v-88h-321v-215h261v-88h-261v-231h321v-88h-414v710zM301 785q-25 0 -42 17t-17 41t17 41.5t42 17.5q24 0 41 -17.5t17 -41.5t-17 -41t-41 -17z" />
    <glyph glyph-name="Gbreve" unicode="&#x11e;" horiz-adv-x="765" 
d="M428 -12q-84 0 -154 28t-121 77.5t-79 116.5t-28 145q0 77 28 144t77.5 116.5t117.5 78t147 28.5q84 0 150.5 -25.5t116.5 -73.5l-62 -67q-38 35 -88 56.5t-117 21.5q-60 0 -111 -21.5t-88 -59.5t-57.5 -89t-20.5 -109q0 -59 20.5 -110t58 -88.5t91 -59t119.5 -21.5
q52 0 103 12.5t86 40.5v190h-201v87h291v-318q-49 -51 -124 -75.5t-155 -24.5zM417 759q-33 0 -62 11t-50.5 31.5t-34 50t-12.5 65.5h58q0 -49 29.5 -75t71.5 -26t71.5 26t29.5 75h58q0 -36 -12.5 -65.5t-34 -50t-50.5 -31.5t-62 -11z" />
    <glyph glyph-name="Gcircumflex" unicode="&#x11c;" horiz-adv-x="765" 
d="M428 -12q-84 0 -154 28t-121 77.5t-79 116.5t-28 145q0 77 28 144t77.5 116.5t117.5 78t147 28.5q84 0 150.5 -25.5t116.5 -73.5l-62 -67q-38 35 -88 56.5t-117 21.5q-60 0 -111 -21.5t-88 -59.5t-57.5 -89t-20.5 -109q0 -59 20.5 -110t58 -88.5t91 -59t119.5 -21.5
q52 0 103 12.5t86 40.5v190h-201v87h291v-318q-49 -51 -124 -75.5t-155 -24.5zM371 905h93l127 -137h-93l-81 83l-80 -83h-93z" />
    <glyph glyph-name="uni0122" unicode="&#x122;" horiz-adv-x="765" 
d="M428 -12q-84 0 -154 28t-121 77.5t-79 116.5t-28 145q0 77 28 144t77.5 116.5t117.5 78t147 28.5q84 0 150.5 -25.5t116.5 -73.5l-62 -67q-38 35 -88 56.5t-117 21.5q-60 0 -111 -21.5t-88 -59.5t-57.5 -89t-20.5 -109q0 -59 20.5 -110t58 -88.5t91 -59t119.5 -21.5
q52 0 103 12.5t86 40.5v190h-201v87h291v-318q-49 -51 -124 -75.5t-155 -24.5zM385 -273l26 93h-47v104h106v-104l-38 -93h-47z" />
    <glyph glyph-name="Gdotaccent" unicode="&#x120;" horiz-adv-x="765" 
d="M428 -12q-84 0 -154 28t-121 77.5t-79 116.5t-28 145q0 77 28 144t77.5 116.5t117.5 78t147 28.5q84 0 150.5 -25.5t116.5 -73.5l-62 -67q-38 35 -88 56.5t-117 21.5q-60 0 -111 -21.5t-88 -59.5t-57.5 -89t-20.5 -109q0 -59 20.5 -110t58 -88.5t91 -59t119.5 -21.5
q52 0 103 12.5t86 40.5v190h-201v87h291v-318q-49 -51 -124 -75.5t-155 -24.5zM417 785q-25 0 -42 17t-17 41t17 41.5t42 17.5q24 0 41 -17.5t17 -41.5t-17 -41t-41 -17z" />
    <glyph glyph-name="Hbar" unicode="&#x126;" horiz-adv-x="776" 
d="M101 710h93v-303h389v303h93v-710h-93v320h-389v-320h-93v710zM28 595h721v-72h-721v72z" />
    <glyph glyph-name="Hcircumflex" unicode="&#x124;" horiz-adv-x="763" 
d="M94 710h93v-303h389v303h93v-710h-93v320h-389v-320h-93v710zM335 905h93l127 -137h-93l-81 83l-80 -83h-93z" />
    <glyph glyph-name="Ibreve" unicode="&#x12c;" horiz-adv-x="281" 
d="M94 710h93v-710h-93v710zM141 759q-33 0 -62 11t-50.5 31.5t-34 50t-12.5 65.5h58q0 -49 29.5 -75t71.5 -26t71.5 26t29.5 75h58q0 -36 -12.5 -65.5t-34 -50t-50.5 -31.5t-62 -11z" />
    <glyph glyph-name="Idotaccent" unicode="&#x130;" horiz-adv-x="281" 
d="M94 710h93v-710h-93v710zM141 785q-25 0 -42 17t-17 41t17 41.5t42 17.5q24 0 41 -17.5t17 -41.5t-17 -41t-41 -17z" />
    <glyph glyph-name="Imacron" unicode="&#x12a;" horiz-adv-x="281" 
d="M94 710h93v-710h-93v710zM-20 874h322v-69h-322v69z" />
    <glyph glyph-name="Iogonek" unicode="&#x12e;" horiz-adv-x="281" 
d="M94 710h93v-710h-93v710zM120 -204q-43 0 -71 24t-28 62t22 66t52 52h92q-42 -26 -63 -50t-21 -49q0 -17 11 -24t25 -7q8 0 16.5 2t17.5 7l29 -58q-15 -11 -37 -18t-45 -7z" />
    <glyph glyph-name="Itilde" unicode="&#x128;" horiz-adv-x="281" 
d="M94 710h93v-710h-93v710zM-29 804q8 43 37 69t69 26q19 0 37.5 -7t34.5 -15t30.5 -15t26.5 -7q33 0 43 44h66l-4 -19q-8 -42 -36.5 -68t-69.5 -26q-20 0 -38 7t-34 15l-30 15t-26 7q-32 0 -44 -44h-65z" />
    <glyph glyph-name="uni1ECA" unicode="&#x1eca;" horiz-adv-x="281" 
d="M94 710h93v-710h-93v710zM141 -190q-25 0 -42 17t-17 41t17 41.5t42 17.5q24 0 41 -17.5t17 -41.5t-17 -41t-41 -17z" />
    <glyph glyph-name="Jcircumflex" unicode="&#x134;" horiz-adv-x="469" 
d="M186 -12q-63 0 -108 23t-72 55l61 65q22 -25 49 -41t68 -16q48 0 76.5 28t28.5 96v512h93v-516q0 -53 -15 -92t-41.5 -64.5t-62 -37.5t-77.5 -12zM289 905h93l127 -137h-93l-81 83l-80 -83h-93z" />
    <glyph glyph-name="uni0136" unicode="&#x136;" horiz-adv-x="671" 
d="M186 338v-338h-92v710h92v-308l310 308h121l-338 -338l415 -372h-131zM342 -273l26 93h-47v104h106v-104l-38 -93h-47z" />
    <glyph glyph-name="Lacute" unicode="&#x139;" horiz-adv-x="548" 
d="M94 710h93v-622h343v-88h-436v710zM185 905h109l-115 -137h-72z" />
    <glyph glyph-name="Lcaron" unicode="&#x13d;" horiz-adv-x="548" 
d="M94 710h93v-622h343v-88h-436v710zM311 730h86l-50 -165h-60z" />
    <glyph glyph-name="uni013B" unicode="&#x13b;" horiz-adv-x="548" 
d="M94 710h93v-622h343v-88h-436v710zM274 -273l26 93h-47v104h106v-104l-38 -93h-47z" />
    <glyph glyph-name="Ldot" unicode="&#x13f;" horiz-adv-x="553" 
d="M94 710h93v-622h343v-88h-436v710zM417 341q-25 0 -42 17t-17 41t17 41.5t42 17.5q24 0 41 -17.5t17 -41.5t-17 -41t-41 -17z" />
    <glyph glyph-name="Lslash" unicode="&#x141;" horiz-adv-x="567" 
d="M113 710h93v-622h343v-88h-436v710zM40 213v84l325 210v-84z" />
    <glyph glyph-name="Nacute" unicode="&#x143;" horiz-adv-x="794" 
d="M619 0l-432 553v-553h-93v710h81l432 -553v553h92v-710h-80zM437 905h109l-115 -137h-72z" />
    <glyph glyph-name="Ncaron" unicode="&#x147;" horiz-adv-x="794" 
d="M619 0l-432 553v-553h-93v710h81l432 -553v553h92v-710h-80zM220 905h93l80 -84l81 84h93l-127 -137h-93z" />
    <glyph glyph-name="uni0145" unicode="&#x145;" horiz-adv-x="794" 
d="M619 0l-432 553v-553h-93v710h81l432 -553v553h92v-710h-80zM368 -273l26 93h-47v104h106v-104l-38 -93h-47z" />
    <glyph glyph-name="OE" unicode="&#x152;" horiz-adv-x="1149" 
d="M412 76q58 0 108.5 21.5t87 59.5t57.5 88.5t21 109.5q0 58 -21 109t-57.5 89t-87 59.5t-108.5 21.5t-108 -21.5t-86.5 -59.5t-57.5 -89t-21 -109q0 -59 21 -109.5t57.5 -88.5t86.5 -59.5t108 -21.5zM686 118q-48 -62 -117.5 -96t-156.5 -34q-77 0 -143.5 28.5t-116.5 78
t-78.5 116.5t-28.5 144t28.5 144t78.5 116.5t116.5 78t143.5 28.5q87 0 156.5 -34t117.5 -96v118h414v-88h-322v-215h262v-88h-262v-231h322v-88h-414v118z" />
    <glyph glyph-name="Obreve" unicode="&#x14e;" horiz-adv-x="825" 
d="M412 76q58 0 108.5 21.5t87 59.5t57.5 88.5t21 109.5q0 58 -21 109t-57.5 89t-87 59.5t-108.5 21.5t-108 -21.5t-86.5 -59.5t-57.5 -89t-21 -109q0 -59 21 -109.5t57.5 -88.5t86.5 -59.5t108 -21.5zM412 -12q-77 0 -143.5 28.5t-116.5 78t-78.5 116.5t-28.5 144t28.5 144
t78.5 116.5t116.5 78t143.5 28.5t144 -28.5t116.5 -78t78 -116.5t28.5 -144t-28.5 -144t-78 -116.5t-116.5 -78t-144 -28.5zM412 759q-33 0 -62 11t-50.5 31.5t-34 50t-12.5 65.5h58q0 -49 29.5 -75t71.5 -26t71.5 26t29.5 75h58q0 -36 -12.5 -65.5t-34 -50t-50.5 -31.5
t-62 -11z" />
    <glyph glyph-name="Ohungarumlaut" unicode="&#x150;" horiz-adv-x="825" 
d="M412 76q58 0 108.5 21.5t87 59.5t57.5 88.5t21 109.5q0 58 -21 109t-57.5 89t-87 59.5t-108.5 21.5t-108 -21.5t-86.5 -59.5t-57.5 -89t-21 -109q0 -59 21 -109.5t57.5 -88.5t86.5 -59.5t108 -21.5zM412 -12q-77 0 -143.5 28.5t-116.5 78t-78.5 116.5t-28.5 144t28.5 144
t78.5 116.5t116.5 78t143.5 28.5t144 -28.5t116.5 -78t78 -116.5t28.5 -144t-28.5 -144t-78 -116.5t-116.5 -78t-144 -28.5zM360 905h99l-91 -137h-63zM527 905h100l-92 -137h-62z" />
    <glyph glyph-name="Omacron" unicode="&#x14c;" horiz-adv-x="825" 
d="M412 76q58 0 108.5 21.5t87 59.5t57.5 88.5t21 109.5q0 58 -21 109t-57.5 89t-87 59.5t-108.5 21.5t-108 -21.5t-86.5 -59.5t-57.5 -89t-21 -109q0 -59 21 -109.5t57.5 -88.5t86.5 -59.5t108 -21.5zM412 -12q-77 0 -143.5 28.5t-116.5 78t-78.5 116.5t-28.5 144t28.5 144
t78.5 116.5t116.5 78t143.5 28.5t144 -28.5t116.5 -78t78 -116.5t28.5 -144t-28.5 -144t-78 -116.5t-116.5 -78t-144 -28.5zM251 874h322v-69h-322v69z" />
    <glyph glyph-name="uni1ECC" unicode="&#x1ecc;" horiz-adv-x="825" 
d="M412 76q58 0 108.5 21.5t87 59.5t57.5 88.5t21 109.5q0 58 -21 109t-57.5 89t-87 59.5t-108.5 21.5t-108 -21.5t-86.5 -59.5t-57.5 -89t-21 -109q0 -59 21 -109.5t57.5 -88.5t86.5 -59.5t108 -21.5zM412 -12q-77 0 -143.5 28.5t-116.5 78t-78.5 116.5t-28.5 144t28.5 144
t78.5 116.5t116.5 78t143.5 28.5t144 -28.5t116.5 -78t78 -116.5t28.5 -144t-28.5 -144t-78 -116.5t-116.5 -78t-144 -28.5zM412 -190q-25 0 -42 17t-17 41t17 41.5t42 17.5q24 0 41 -17.5t17 -41.5t-17 -41t-41 -17z" />
    <glyph glyph-name="Racute" unicode="&#x154;" horiz-adv-x="635" 
d="M94 710h242q49 0 88.5 -14t67 -40t42 -62t14.5 -80q0 -78 -46.5 -128t-129.5 -62l274 -324h-117l-273 323h-69v-323h-93v710zM325 406q61 0 95.5 27t34.5 81t-34.5 82t-95.5 28h-138v-218h138zM344 905h109l-115 -137h-72z" />
    <glyph glyph-name="Rcaron" unicode="&#x158;" horiz-adv-x="635" 
d="M94 710h242q49 0 88.5 -14t67 -40t42 -62t14.5 -80q0 -78 -46.5 -128t-129.5 -62l274 -324h-117l-273 323h-69v-323h-93v710zM325 406q61 0 95.5 27t34.5 81t-34.5 82t-95.5 28h-138v-218h138zM126 905h93l80 -84l81 84h93l-127 -137h-93z" />
    <glyph glyph-name="uni0156" unicode="&#x156;" horiz-adv-x="635" 
d="M94 710h242q49 0 88.5 -14t67 -40t42 -62t14.5 -80q0 -78 -46.5 -128t-129.5 -62l274 -324h-117l-273 323h-69v-323h-93v710zM325 406q61 0 95.5 27t34.5 81t-34.5 82t-95.5 28h-138v-218h138zM326 -273l26 93h-47v104h106v-104l-38 -93h-47z" />
    <glyph glyph-name="Sacute" unicode="&#x15a;" horiz-adv-x="554" 
d="M284 -12q-44 0 -83 9.5t-71 27t-56.5 41t-37.5 50.5l74 56q29 -45 72.5 -71t103.5 -26q28 0 52 7.5t42 21t28 33t10 44.5q0 43 -26 72t-76 48l-94 36q-84 31 -123 77t-39 119q0 43 17 78t47 60t70.5 38t88.5 13q67 0 120.5 -27t85.5 -70l-67 -60q-28 32 -61.5 51
t-79.5 19q-26 0 -49.5 -7t-41 -20t-27.5 -31t-10 -40q0 -45 26 -69.5t81 -44.5l85 -33q80 -30 123 -78t43 -127q0 -45 -17 -81.5t-47 -62t-71.5 -39.5t-91.5 -14zM328 905h109l-115 -137h-72z" />
    <glyph glyph-name="Scaron" unicode="&#x160;" horiz-adv-x="554" 
d="M284 -12q-44 0 -83 9.5t-71 27t-56.5 41t-37.5 50.5l74 56q29 -45 72.5 -71t103.5 -26q28 0 52 7.5t42 21t28 33t10 44.5q0 43 -26 72t-76 48l-94 36q-84 31 -123 77t-39 119q0 43 17 78t47 60t70.5 38t88.5 13q67 0 120.5 -27t85.5 -70l-67 -60q-28 32 -61.5 51
t-79.5 19q-26 0 -49.5 -7t-41 -20t-27.5 -31t-10 -40q0 -45 26 -69.5t81 -44.5l85 -33q80 -30 123 -78t43 -127q0 -45 -17 -81.5t-47 -62t-71.5 -39.5t-91.5 -14zM110 905h93l80 -84l81 84h93l-127 -137h-93z" />
    <glyph glyph-name="Scedilla" unicode="&#x15e;" horiz-adv-x="554" 
d="M284 -12q-44 0 -83 9.5t-71 27t-56.5 41t-37.5 50.5l74 56q29 -45 72.5 -71t103.5 -26q28 0 52 7.5t42 21t28 33t10 44.5q0 43 -26 72t-76 48l-94 36q-84 31 -123 77t-39 119q0 43 17 78t47 60t70.5 38t88.5 13q67 0 120.5 -27t85.5 -70l-67 -60q-28 32 -61.5 51
t-79.5 19q-26 0 -49.5 -7t-41 -20t-27.5 -31t-10 -40q0 -45 26 -69.5t81 -44.5l85 -33q80 -30 123 -78t43 -127q0 -45 -17 -81.5t-47 -62t-71.5 -39.5t-91.5 -14zM194 -137q33 -14 68 -14q20 0 38.5 7t18.5 26q0 14 -11 20.5t-28 6.5q-14 0 -25 -2.5t-21 -6.5l-30 22l48 81
h55l-32 -52q16 7 38 7q32 0 54 -19t22 -53q0 -44 -34.5 -67t-87.5 -23q-22 0 -44.5 4t-42.5 13z" />
    <glyph glyph-name="Scircumflex" unicode="&#x15c;" horiz-adv-x="554" 
d="M284 -12q-44 0 -83 9.5t-71 27t-56.5 41t-37.5 50.5l74 56q29 -45 72.5 -71t103.5 -26q28 0 52 7.5t42 21t28 33t10 44.5q0 43 -26 72t-76 48l-94 36q-84 31 -123 77t-39 119q0 43 17 78t47 60t70.5 38t88.5 13q67 0 120.5 -27t85.5 -70l-67 -60q-28 32 -61.5 51
t-79.5 19q-26 0 -49.5 -7t-41 -20t-27.5 -31t-10 -40q0 -45 26 -69.5t81 -44.5l85 -33q80 -30 123 -78t43 -127q0 -45 -17 -81.5t-47 -62t-71.5 -39.5t-91.5 -14zM237 905h93l127 -137h-93l-81 83l-80 -83h-93z" />
    <glyph glyph-name="uni0218" unicode="&#x218;" horiz-adv-x="554" 
d="M284 -12q-44 0 -83 9.5t-71 27t-56.5 41t-37.5 50.5l74 56q29 -45 72.5 -71t103.5 -26q28 0 52 7.5t42 21t28 33t10 44.5q0 43 -26 72t-76 48l-94 36q-84 31 -123 77t-39 119q0 43 17 78t47 60t70.5 38t88.5 13q67 0 120.5 -27t85.5 -70l-67 -60q-28 32 -61.5 51
t-79.5 19q-26 0 -49.5 -7t-41 -20t-27.5 -31t-10 -40q0 -45 26 -69.5t81 -44.5l85 -33q80 -30 123 -78t43 -127q0 -45 -17 -81.5t-47 -62t-71.5 -39.5t-91.5 -14zM252 -273l26 93h-47v104h106v-104l-38 -93h-47z" />
    <glyph glyph-name="Tcaron" unicode="&#x164;" horiz-adv-x="567" 
d="M238 622h-221v88h533v-88h-221v-622h-91v622zM110 905h93l80 -84l81 84h93l-127 -137h-93z" />
    <glyph glyph-name="uni0162" unicode="&#x162;" horiz-adv-x="567" 
d="M238 622h-221v88h533v-88h-221v-622h-91v622zM251 -273l26 93h-47v104h106v-104l-38 -93h-47z" />
    <glyph glyph-name="uni021A" unicode="&#x21a;" horiz-adv-x="567" 
d="M238 622h-221v88h533v-88h-221v-622h-91v622zM251 -273l26 93h-47v104h106v-104l-38 -93h-47z" />
    <glyph glyph-name="Ubreve" unicode="&#x16c;" horiz-adv-x="726" 
d="M363 -12q-62 0 -113 20t-87.5 57.5t-57 91t-20.5 119.5v434h93v-436q0 -96 50.5 -147t134.5 -51t134.5 51t50.5 147v436h93v-434q0 -66 -20.5 -119.5t-57 -91t-88 -57.5t-112.5 -20zM363 759q-33 0 -62 11t-50.5 31.5t-34 50t-12.5 65.5h58q0 -49 29.5 -75t71.5 -26
t71.5 26t29.5 75h58q0 -36 -12.5 -65.5t-34 -50t-50.5 -31.5t-62 -11z" />
    <glyph glyph-name="Uhungarumlaut" unicode="&#x170;" horiz-adv-x="726" 
d="M363 -12q-62 0 -113 20t-87.5 57.5t-57 91t-20.5 119.5v434h93v-436q0 -96 50.5 -147t134.5 -51t134.5 51t50.5 147v436h93v-434q0 -66 -20.5 -119.5t-57 -91t-88 -57.5t-112.5 -20zM310 905h99l-91 -137h-63zM477 905h100l-92 -137h-62z" />
    <glyph glyph-name="Umacron" unicode="&#x16a;" horiz-adv-x="726" 
d="M363 -12q-62 0 -113 20t-87.5 57.5t-57 91t-20.5 119.5v434h93v-436q0 -96 50.5 -147t134.5 -51t134.5 51t50.5 147v436h93v-434q0 -66 -20.5 -119.5t-57 -91t-88 -57.5t-112.5 -20zM202 874h322v-69h-322v69z" />
    <glyph glyph-name="Uogonek" unicode="&#x172;" horiz-adv-x="726" 
d="M421 -204q-40 0 -69 22t-29 60q0 61 67 112q-8 -1 -14 -1.5t-11 -0.5q-63 0 -114.5 20t-88.5 57.5t-57 91t-20 119.5v434h93v-436q0 -96 50.5 -147t134.5 -51t134.5 51t50.5 147v436h93v-434q0 -74 -24.5 -131t-69.5 -95q-23 -20 -47.5 -39.5t-45 -38.5t-34 -37
t-13.5 -35q0 -16 9.5 -23t22.5 -7q9 0 18 2t17 7l30 -58q-16 -11 -38 -18t-45 -7z" />
    <glyph glyph-name="Uring" unicode="&#x16e;" horiz-adv-x="726" 
d="M363 -12q-62 0 -113 20t-87.5 57.5t-57 91t-20.5 119.5v434h93v-436q0 -96 50.5 -147t134.5 -51t134.5 51t50.5 147v436h93v-434q0 -66 -20.5 -119.5t-57 -91t-88 -57.5t-112.5 -20zM363 753q-25 0 -47 9.5t-38.5 26t-26 38t-9.5 46.5t9.5 46.5t26 38t38.5 26t47 9.5
t47 -9.5t38.5 -26t26.5 -38t10 -46.5t-10 -46.5t-26.5 -38t-38.5 -26t-47 -9.5zM363 804q29 0 50 20t21 49t-21 49.5t-50 20.5t-49 -20.5t-20 -49.5t20 -49t49 -20z" />
    <glyph glyph-name="Utilde" unicode="&#x168;" horiz-adv-x="726" 
d="M363 -12q-62 0 -113 20t-87.5 57.5t-57 91t-20.5 119.5v434h93v-436q0 -96 50.5 -147t134.5 -51t134.5 51t50.5 147v436h93v-434q0 -66 -20.5 -119.5t-57 -91t-88 -57.5t-112.5 -20zM193 804q8 43 37 69t69 26q19 0 37.5 -7t34.5 -15t30.5 -15t26.5 -7q33 0 43 44h66
l-4 -19q-8 -42 -36.5 -68t-69.5 -26q-20 0 -38 7t-34 15l-30 15t-26 7q-32 0 -44 -44h-65z" />
    <glyph glyph-name="uni1EE4" unicode="&#x1ee4;" horiz-adv-x="726" 
d="M363 -12q-62 0 -113 20t-87.5 57.5t-57 91t-20.5 119.5v434h93v-436q0 -96 50.5 -147t134.5 -51t134.5 51t50.5 147v436h93v-434q0 -66 -20.5 -119.5t-57 -91t-88 -57.5t-112.5 -20zM363 -190q-25 0 -42 17t-17 41t17 41.5t42 17.5q24 0 41 -17.5t17 -41.5t-17 -41
t-41 -17z" />
    <glyph glyph-name="Wacute" unicode="&#x1e82;" horiz-adv-x="1000" 
d="M17 710h97l169 -547l176 547h80l177 -547l168 547h99l-222 -710h-81l-180 558l-180 -558h-82zM545 905h109l-115 -137h-72z" />
    <glyph glyph-name="Wcircumflex" unicode="&#x174;" horiz-adv-x="1000" 
d="M17 710h97l169 -547l176 547h80l177 -547l168 547h99l-222 -710h-81l-180 558l-180 -558h-82zM454 905h93l127 -137h-93l-81 83l-80 -83h-93z" />
    <glyph glyph-name="Wdieresis" unicode="&#x1e84;" horiz-adv-x="1000" 
d="M17 710h97l169 -547l176 547h80l177 -547l168 547h99l-222 -710h-81l-180 558l-180 -558h-82zM388 785q-25 0 -42 17t-17 41t17 41.5t42 17.5q24 0 41 -17.5t17 -41.5t-17 -41t-41 -17zM613 785q-24 0 -41.5 17t-17.5 41t17.5 41.5t41.5 17.5t41 -17.5t17 -41.5t-17 -41
t-41 -17z" />
    <glyph glyph-name="Wgrave" unicode="&#x1e80;" horiz-adv-x="1000" 
d="M17 710h97l169 -547l176 547h80l177 -547l168 547h99l-222 -710h-81l-180 558l-180 -558h-82zM461 768l-115 137h109l78 -137h-72z" />
    <glyph glyph-name="Ycircumflex" unicode="&#x176;" horiz-adv-x="674" 
d="M291 301l-276 409h111l211 -316l212 316h111l-277 -410v-300h-92v301zM291 905h93l127 -137h-93l-81 83l-80 -83h-93z" />
    <glyph glyph-name="Ydieresis" unicode="&#x178;" horiz-adv-x="674" 
d="M291 301l-276 409h111l211 -316l212 316h111l-277 -410v-300h-92v301zM225 785q-25 0 -42 17t-17 41t17 41.5t42 17.5q24 0 41 -17.5t17 -41.5t-17 -41t-41 -17zM450 785q-24 0 -41.5 17t-17.5 41t17.5 41.5t41.5 17.5t41 -17.5t17 -41.5t-17 -41t-41 -17z" />
    <glyph glyph-name="Ygrave" unicode="&#x1ef2;" horiz-adv-x="674" 
d="M291 301l-276 409h111l211 -316l212 316h111l-277 -410v-300h-92v301zM298 768l-115 137h109l78 -137h-72z" />
    <glyph glyph-name="uni0232" unicode="&#x232;" horiz-adv-x="674" 
d="M291 301l-276 409h111l211 -316l212 316h111l-277 -410v-300h-92v301zM176 874h322v-69h-322v69z" />
    <glyph glyph-name="Zacute" unicode="&#x179;" horiz-adv-x="587" 
d="M34 62l385 560h-374v88h497v-62l-385 -560h395v-88h-518v62zM345 905h109l-115 -137h-72z" />
    <glyph glyph-name="Zcaron" unicode="&#x17d;" horiz-adv-x="587" 
d="M34 62l385 560h-374v88h497v-62l-385 -560h395v-88h-518v62zM128 905h93l80 -84l81 84h93l-127 -137h-93z" />
    <glyph glyph-name="Zdotaccent" unicode="&#x17b;" horiz-adv-x="587" 
d="M34 62l385 560h-374v88h497v-62l-385 -560h395v-88h-518v62zM301 785q-25 0 -42 17t-17 41t17 41.5t42 17.5q24 0 41 -17.5t17 -41.5t-17 -41t-41 -17z" />
    <glyph glyph-name="uni1E9E" unicode="&#x1e9e;" horiz-adv-x="634" 
d="M94 710h441v-61l-133 -204q89 -16 137.5 -69.5t48.5 -147.5q0 -56 -19 -99t-52.5 -71.5t-80.5 -43t-103 -14.5h-37v88h44q34 0 62.5 9t49.5 26.5t32.5 43.5t11.5 61t-11.5 61t-32.5 43.5t-49.5 26.5t-62.5 9h-44v70l123 188h-232v-626h-93v710z" />
    <glyph glyph-name="abreve" unicode="&#x103;" horiz-adv-x="624" 
d="M294 -10q-56 0 -102.5 20.5t-79.5 56t-51.5 83t-18.5 100.5t18.5 100.5t51.5 83t79.5 56t102.5 20.5q49 0 91 -16.5t72 -48.5v55h86v-500h-86v55q-30 -32 -72 -48.5t-91 -16.5zM301 69q56 0 95 24t61 59v197q-22 35 -61 58.5t-95 23.5q-38 0 -69 -14t-53.5 -39t-35 -58
t-12.5 -70q0 -38 12.5 -70.5t35 -57.5t53.5 -39t69 -14zM333 561q-33 0 -62 11t-50.5 31.5t-34 50t-12.5 66.5v10h58v-10q0 -50 29.5 -76t71.5 -26t71.5 26t29.5 76v10h58v-10q0 -37 -12.5 -66.5t-34 -50t-50.5 -31.5t-62 -11z" />
    <glyph glyph-name="amacron" unicode="&#x101;" horiz-adv-x="624" 
d="M294 -10q-56 0 -102.5 20.5t-79.5 56t-51.5 83t-18.5 100.5t18.5 100.5t51.5 83t79.5 56t102.5 20.5q49 0 91 -16.5t72 -48.5v55h86v-500h-86v55q-30 -32 -72 -48.5t-91 -16.5zM301 69q56 0 95 24t61 59v197q-22 35 -61 58.5t-95 23.5q-38 0 -69 -14t-53.5 -39t-35 -58
t-12.5 -70q0 -38 12.5 -70.5t35 -57.5t53.5 -39t69 -14zM172 710h322v-69h-322v69z" />
    <glyph glyph-name="aogonek" unicode="&#x105;" horiz-adv-x="624" 
d="M294 -10q-56 0 -102.5 20.5t-79.5 56t-51.5 83t-18.5 100.5t18.5 100.5t51.5 83t79.5 56t102.5 20.5q49 0 91 -16.5t72 -48.5v55h86v-500h-86v55q-30 -32 -72 -48.5t-91 -16.5zM301 69q56 0 95 24t61 59v197q-22 35 -61 58.5t-95 23.5q-38 0 -69 -14t-53.5 -39t-35 -58
t-12.5 -70q0 -38 12.5 -70.5t35 -57.5t53.5 -39t69 -14zM477 -204q-44 0 -69 24t-25 62t22.5 66.5t51.5 51.5h86q-84 -53 -84 -101q0 -17 11 -25.5t25 -8.5q9 0 18 2t18 7l27 -53q-15 -11 -36.5 -18t-44.5 -7z" />
    <glyph glyph-name="cacute" unicode="&#x107;" horiz-adv-x="565" 
d="M304 -10q-57 0 -105 20t-83 55.5t-54.5 83t-19.5 101.5t19.5 101.5t54.5 83t83 55.5t105 20q78 0 138 -37t93 -97l-75 -42q-21 43 -61.5 69.5t-94.5 26.5q-39 0 -71 -14t-55.5 -38.5t-36 -57.5t-12.5 -70q0 -38 12.5 -70.5t36 -57t55.5 -38.5t71 -14q54 0 94.5 26.5
t61.5 69.5l75 -42q-33 -60 -93 -97t-138 -37zM355 730h109l-125 -156h-72z" />
    <glyph glyph-name="ccaron" unicode="&#x10d;" horiz-adv-x="565" 
d="M304 -10q-57 0 -105 20t-83 55.5t-54.5 83t-19.5 101.5t19.5 101.5t54.5 83t83 55.5t105 20q78 0 138 -37t93 -97l-75 -42q-21 43 -61.5 69.5t-94.5 26.5q-39 0 -71 -14t-55.5 -38.5t-36 -57.5t-12.5 -70q0 -38 12.5 -70.5t36 -57t55.5 -38.5t71 -14q54 0 94.5 26.5
t61.5 69.5l75 -42q-33 -60 -93 -97t-138 -37zM223 730l81 -95l81 95h90l-127 -152h-88l-127 152h90z" />
    <glyph glyph-name="ccircumflex" unicode="&#x109;" horiz-adv-x="565" 
d="M304 -10q-57 0 -105 20t-83 55.5t-54.5 83t-19.5 101.5t19.5 101.5t54.5 83t83 55.5t105 20q78 0 138 -37t93 -97l-75 -42q-21 43 -61.5 69.5t-94.5 26.5q-39 0 -71 -14t-55.5 -38.5t-36 -57.5t-12.5 -70q0 -38 12.5 -70.5t36 -57t55.5 -38.5t71 -14q54 0 94.5 26.5
t61.5 69.5l75 -42q-33 -60 -93 -97t-138 -37zM260 730h88l127 -152h-90l-81 94l-81 -94h-90z" />
    <glyph glyph-name="cdotaccent" unicode="&#x10b;" horiz-adv-x="565" 
d="M304 -10q-57 0 -105 20t-83 55.5t-54.5 83t-19.5 101.5t19.5 101.5t54.5 83t83 55.5t105 20q78 0 138 -37t93 -97l-75 -42q-21 43 -61.5 69.5t-94.5 26.5q-39 0 -71 -14t-55.5 -38.5t-36 -57.5t-12.5 -70q0 -38 12.5 -70.5t36 -57t55.5 -38.5t71 -14q54 0 94.5 26.5
t61.5 69.5l75 -42q-33 -60 -93 -97t-138 -37zM304 594q-25 0 -42 17t-17 41t17 41.5t42 17.5q24 0 41 -17.5t17 -41.5t-17 -41t-41 -17z" />
    <glyph glyph-name="dcaron" unicode="&#x10f;" horiz-adv-x="624" 
d="M294 -10q-56 0 -102.5 20.5t-79.5 56t-51.5 83t-18.5 100.5t18.5 100.5t51.5 83t79.5 56t102.5 20.5q49 0 91 -16.5t72 -48.5v285h86v-730h-86v55q-30 -32 -72 -48.5t-91 -16.5zM301 69q56 0 95 24t61 59v197q-22 35 -61 58.5t-95 23.5q-38 0 -69 -14t-53.5 -39t-35 -58
t-12.5 -70q0 -38 12.5 -70.5t35 -57.5t53.5 -39t69 -14zM603 730h86l-50 -165h-60z" />
    <glyph glyph-name="dcroat" unicode="&#x111;" horiz-adv-x="624" 
d="M294 -10q-56 0 -102.5 20.5t-79.5 56t-51.5 83t-18.5 100.5t18.5 100.5t51.5 83t79.5 56t102.5 20.5q49 0 91 -16.5t72 -48.5v285h86v-730h-86v55q-30 -32 -72 -48.5t-91 -16.5zM301 69q56 0 95 24t61 59v197q-22 35 -61 58.5t-95 23.5q-38 0 -69 -14t-53.5 -39t-35 -58
t-12.5 -70q0 -38 12.5 -70.5t35 -57.5t53.5 -39t69 -14zM298 577v68h323v-68h-323z" />
    <glyph glyph-name="ebreve" unicode="&#x115;" horiz-adv-x="581" 
d="M301 -10q-58 0 -106 20t-82 55t-52.5 82.5t-18.5 102.5t19 102.5t53.5 82.5t82.5 55t105 20q49 0 92 -16.5t75.5 -49t51.5 -79t19 -106.5v-12.5t-1 -13.5h-410q1 -35 14.5 -65t36 -52t54 -34.5t68.5 -12.5q58 0 95.5 23.5t60.5 63.5l68 -47q-34 -55 -90.5 -87t-134.5 -32
zM452 303q-5 31 -18.5 55t-34 41t-46.5 26t-54 9t-55 -9t-49 -25.5t-38 -41t-22 -55.5h317zM303 561q-33 0 -62 11t-50.5 31.5t-34 50t-12.5 66.5v10h58v-10q0 -50 29.5 -76t71.5 -26t71.5 26t29.5 76v10h58v-10q0 -37 -12.5 -66.5t-34 -50t-50.5 -31.5t-62 -11z" />
    <glyph glyph-name="ecaron" unicode="&#x11b;" horiz-adv-x="581" 
d="M301 -10q-58 0 -106 20t-82 55t-52.5 82.5t-18.5 102.5t19 102.5t53.5 82.5t82.5 55t105 20q49 0 92 -16.5t75.5 -49t51.5 -79t19 -106.5v-12.5t-1 -13.5h-410q1 -35 14.5 -65t36 -52t54 -34.5t68.5 -12.5q58 0 95.5 23.5t60.5 63.5l68 -47q-34 -55 -90.5 -87t-134.5 -32
zM452 303q-5 31 -18.5 55t-34 41t-46.5 26t-54 9t-55 -9t-49 -25.5t-38 -41t-22 -55.5h317zM222 730l81 -95l81 95h90l-127 -152h-88l-127 152h90z" />
    <glyph glyph-name="emacron" unicode="&#x113;" horiz-adv-x="581" 
d="M301 -10q-58 0 -106 20t-82 55t-52.5 82.5t-18.5 102.5t19 102.5t53.5 82.5t82.5 55t105 20q49 0 92 -16.5t75.5 -49t51.5 -79t19 -106.5v-12.5t-1 -13.5h-410q1 -35 14.5 -65t36 -52t54 -34.5t68.5 -12.5q58 0 95.5 23.5t60.5 63.5l68 -47q-34 -55 -90.5 -87t-134.5 -32
zM452 303q-5 31 -18.5 55t-34 41t-46.5 26t-54 9t-55 -9t-49 -25.5t-38 -41t-22 -55.5h317zM142 710h322v-69h-322v69z" />
    <glyph glyph-name="eogonek" unicode="&#x119;" horiz-adv-x="581" 
d="M445 -204q-40 0 -68.5 23t-28.5 65q0 21 5.5 39t14.5 34t19 30t19 25q-19 -11 -50 -16.5t-55 -5.5q-58 0 -106 20t-82 55t-52.5 82.5t-18.5 102.5t19 102.5t53.5 82.5t82.5 55t105 20q49 0 92 -16.5t75.5 -49t51.5 -79t19 -106.5v-12.5t-1 -13.5h-410q1 -35 14.5 -65
t36 -52t54 -34.5t68.5 -12.5q58 0 95.5 23.5t60.5 63.5l68 -47q-16 -23 -33.5 -50t-32.5 -54t-24.5 -51.5t-9.5 -42.5q0 -26 13.5 -36t31.5 -10q9 0 17.5 2t16.5 7l28 -53q-16 -11 -37.5 -18t-50.5 -7zM299 434q-28 0 -55 -9t-49 -25.5t-38 -41t-22 -55.5h317
q-5 31 -18.5 55t-34 41t-46.5 26t-54 9z" />
    <glyph glyph-name="edotaccent" unicode="&#x117;" horiz-adv-x="581" 
d="M301 -10q-58 0 -106 20t-82 55t-52.5 82.5t-18.5 102.5t19 102.5t53.5 82.5t82.5 55t105 20q49 0 92 -16.5t75.5 -49t51.5 -79t19 -106.5v-12.5t-1 -13.5h-410q1 -35 14.5 -65t36 -52t54 -34.5t68.5 -12.5q58 0 95.5 23.5t60.5 63.5l68 -47q-34 -55 -90.5 -87t-134.5 -32
zM452 303q-5 31 -18.5 55t-34 41t-46.5 26t-54 9t-55 -9t-49 -25.5t-38 -41t-22 -55.5h317zM303 594q-25 0 -42 17t-17 41t17 41.5t42 17.5q24 0 41 -17.5t17 -41.5t-17 -41t-41 -17z" />
    <glyph glyph-name="gbreve" unicode="&#x11f;" horiz-adv-x="625" 
d="M294 -204q-77 0 -135 26t-90 66l59 60q30 -35 71 -54.5t95 -19.5q30 0 59 9t52.5 28.5t38 49.5t14.5 72v38q-30 -33 -72.5 -49.5t-90.5 -16.5q-55 0 -101.5 20t-80.5 54t-52.5 80t-18.5 99q0 52 19 98t52.5 80.5t80 54t101.5 19.5q48 0 90.5 -16.5t72.5 -48.5v55h86v-470
q0 -60 -20 -104t-54.5 -73t-79.5 -43t-96 -14zM302 85q56 0 95 23.5t61 58.5v182q-22 35 -61 58.5t-95 23.5q-37 0 -68.5 -13.5t-54.5 -36.5t-35.5 -55t-12.5 -68q0 -37 13 -68.5t35.5 -55t54 -36.5t68.5 -13zM323 561q-33 0 -62 11t-50.5 31.5t-34 50t-12.5 66.5v10h58v-10
q0 -50 29.5 -76t71.5 -26t71.5 26t29.5 76v10h58v-10q0 -37 -12.5 -66.5t-34 -50t-50.5 -31.5t-62 -11z" />
    <glyph glyph-name="gcircumflex" unicode="&#x11d;" horiz-adv-x="625" 
d="M294 -204q-77 0 -135 26t-90 66l59 60q30 -35 71 -54.5t95 -19.5q30 0 59 9t52.5 28.5t38 49.5t14.5 72v38q-30 -33 -72.5 -49.5t-90.5 -16.5q-55 0 -101.5 20t-80.5 54t-52.5 80t-18.5 99q0 52 19 98t52.5 80.5t80 54t101.5 19.5q48 0 90.5 -16.5t72.5 -48.5v55h86v-470
q0 -60 -20 -104t-54.5 -73t-79.5 -43t-96 -14zM302 85q56 0 95 23.5t61 58.5v182q-22 35 -61 58.5t-95 23.5q-37 0 -68.5 -13.5t-54.5 -36.5t-35.5 -55t-12.5 -68q0 -37 13 -68.5t35.5 -55t54 -36.5t68.5 -13zM279 730h88l127 -152h-90l-81 94l-81 -94h-90z" />
    <glyph glyph-name="uni0123" unicode="&#x123;" horiz-adv-x="625" 
d="M294 -204q-77 0 -135 26t-90 66l59 60q30 -35 71 -54.5t95 -19.5q30 0 59 9t52.5 28.5t38 49.5t14.5 72v38q-30 -33 -72.5 -49.5t-90.5 -16.5q-55 0 -101.5 20t-80.5 54t-52.5 80t-18.5 99q0 52 19 98t52.5 80.5t80 54t101.5 19.5q48 0 90.5 -16.5t72.5 -48.5v55h86v-470
q0 -60 -20 -104t-54.5 -73t-79.5 -43t-96 -14zM302 85q56 0 95 23.5t61 58.5v182q-22 35 -61 58.5t-95 23.5q-37 0 -68.5 -13.5t-54.5 -36.5t-35.5 -55t-12.5 -68q0 -37 13 -68.5t35.5 -55t54 -36.5t68.5 -13zM355 797l-26 -93h47v-105h-106v105l38 93h47z" />
    <glyph glyph-name="gdotaccent" unicode="&#x121;" horiz-adv-x="625" 
d="M294 -204q-77 0 -135 26t-90 66l59 60q30 -35 71 -54.5t95 -19.5q30 0 59 9t52.5 28.5t38 49.5t14.5 72v38q-30 -33 -72.5 -49.5t-90.5 -16.5q-55 0 -101.5 20t-80.5 54t-52.5 80t-18.5 99q0 52 19 98t52.5 80.5t80 54t101.5 19.5q48 0 90.5 -16.5t72.5 -48.5v55h86v-470
q0 -60 -20 -104t-54.5 -73t-79.5 -43t-96 -14zM302 85q56 0 95 23.5t61 58.5v182q-22 35 -61 58.5t-95 23.5q-37 0 -68.5 -13.5t-54.5 -36.5t-35.5 -55t-12.5 -68q0 -37 13 -68.5t35.5 -55t54 -36.5t68.5 -13zM323 594q-25 0 -42 17t-17 41t17 41.5t42 17.5q24 0 41 -17.5
t17 -41.5t-17 -41t-41 -17z" />
    <glyph glyph-name="hbar" unicode="&#x127;" horiz-adv-x="589" 
d="M81 0v730h86v-293q26 38 68 55.5t90 17.5q42 0 77 -14t60 -40.5t39 -64t14 -84.5v-307h-85v294q0 66 -33.5 101.5t-91.5 35.5q-53 0 -88 -27.5t-50 -71.5v-332h-86zM11 577v68h323v-68h-323z" />
    <glyph glyph-name="hcircumflex" unicode="&#x125;" horiz-adv-x="589" 
d="M81 0v730h86v-293q26 38 68 55.5t90 17.5q42 0 77 -14t60 -40.5t39 -64t14 -84.5v-307h-85v294q0 66 -33.5 101.5t-91.5 35.5q-53 0 -88 -27.5t-50 -71.5v-332h-86zM255 905h93l127 -137h-93l-81 83l-80 -83h-93z" />
    <glyph glyph-name="dotlessi" unicode="&#x131;" horiz-adv-x="249" 
d="M81 500h86v-500h-86v500z" />
    <glyph glyph-name="ibreve" unicode="&#x12d;" horiz-adv-x="249" 
d="M81 500h86v-500h-86v500zM124 561q-33 0 -62 11t-50.5 31.5t-34 50t-12.5 66.5v10h58v-10q0 -50 29.5 -76t71.5 -26t71.5 26t29.5 76v10h58v-10q0 -37 -12.5 -66.5t-34 -50t-50.5 -31.5t-62 -11z" />
    <glyph glyph-name="imacron" unicode="&#x12b;" horiz-adv-x="249" 
d="M81 500h86v-500h-86v500zM-37 710h322v-69h-322v69z" />
    <glyph glyph-name="iogonek" unicode="&#x12f;" horiz-adv-x="249" 
d="M125 614q-26 0 -44 17.5t-18 43.5q0 25 18 43t44 18t43.5 -18t17.5 -43q0 -26 -17.5 -43.5t-43.5 -17.5zM81 500h86v-500h-86v500zM101 -204q-44 0 -69 24t-25 62t22.5 66.5t51.5 51.5h86q-84 -53 -84 -101q0 -17 11 -25.5t25 -8.5q9 0 18 2t18 7l27 -53
q-15 -11 -36.5 -18t-44.5 -7z" />
    <glyph glyph-name="itilde" unicode="&#x129;" horiz-adv-x="249" 
d="M81 500h86v-500h-86v500zM-47 611q8 43 37 69t69 26q20 0 38 -7t34.5 -15t30.5 -15t26 -7q33 0 43 44h66l-3 -18q-8 -43 -37 -69t-69 -26q-20 0 -38 7t-34.5 15t-30.5 15t-26 7q-33 0 -43 -44h-66z" />
    <glyph glyph-name="uni1ECB" unicode="&#x1ecb;" horiz-adv-x="249" 
d="M125 614q-26 0 -44 17.5t-18 43.5q0 25 18 43t44 18t43.5 -18t17.5 -43q0 -26 -17.5 -43.5t-43.5 -17.5zM81 500h86v-500h-86v500zM125 -190q-25 0 -42 17t-17 41t17 41t42 17q24 0 41 -17t17 -41t-17 -41t-41 -17z" />
    <glyph glyph-name="uni0237" unicode="&#x237;" horiz-adv-x="257" 
d="M32 -199q-21 0 -44 4.5t-32 9.5l19 73q8 -3 19.5 -6t29.5 -3q26 0 45.5 18.5t19.5 66.5v536h86v-546q0 -39 -11.5 -68t-31 -47.5t-45.5 -28t-55 -9.5z" />
    <glyph glyph-name="jcircumflex" unicode="&#x135;" horiz-adv-x="257" 
d="M32 -199q-21 0 -44 4.5t-32 9.5l19 73q8 -3 19.5 -6t29.5 -3q26 0 45.5 18.5t19.5 66.5v536h86v-546q0 -39 -11.5 -68t-31 -47.5t-45.5 -28t-55 -9.5zM88 730h88l127 -152h-90l-81 94l-81 -94h-90z" />
    <glyph glyph-name="uni0137" unicode="&#x137;" horiz-adv-x="539" 
d="M167 250v-250h-86v730h86v-425l218 195h114l-246 -221l301 -279h-116zM269 -273l26 93h-47v104h106v-104l-38 -93h-47z" />
    <glyph glyph-name="lacute" unicode="&#x13a;" horiz-adv-x="249" 
d="M81 730h86v-730h-86v730zM176 960h109l-125 -156h-72z" />
    <glyph glyph-name="lcaron" unicode="&#x13e;" horiz-adv-x="249" 
d="M81 730h86v-730h-86v730zM228 730h86l-50 -165h-60z" />
    <glyph glyph-name="uni013C" unicode="&#x13c;" horiz-adv-x="249" 
d="M81 730h86v-730h-86v730zM92 -273l26 93h-47v104h106v-104l-38 -93h-47z" />
    <glyph glyph-name="ldot" unicode="&#x140;" horiz-adv-x="383" 
d="M81 730h86v-730h-86v730zM317 317q-25 0 -42 17t-17 41t17 41.5t42 17.5q24 0 41 -17.5t17 -41.5t-17 -41t-41 -17z" />
    <glyph glyph-name="lslash" unicode="&#x142;" horiz-adv-x="319" 
d="M118 730h86v-730h-86v730zM39 257v78l244 156v-77z" />
    <glyph glyph-name="nacute" unicode="&#x144;" horiz-adv-x="589" 
d="M81 500h86v-63q26 38 68 55.5t90 17.5q42 0 77 -14t60 -40.5t39 -64t14 -84.5v-307h-85v294q0 66 -33.5 101.5t-91.5 35.5q-53 0 -88 -27.5t-50 -71.5v-332h-86v500zM350 730h109l-125 -156h-72z" />
    <glyph glyph-name="ncaron" unicode="&#x148;" horiz-adv-x="589" 
d="M81 500h86v-63q26 38 68 55.5t90 17.5q42 0 77 -14t60 -40.5t39 -64t14 -84.5v-307h-85v294q0 66 -33.5 101.5t-91.5 35.5q-53 0 -88 -27.5t-50 -71.5v-332h-86v500zM217 730l81 -95l81 95h90l-127 -152h-88l-127 152h90z" />
    <glyph glyph-name="uni0146" unicode="&#x146;" horiz-adv-x="589" 
d="M81 500h86v-63q26 38 68 55.5t90 17.5q42 0 77 -14t60 -40.5t39 -64t14 -84.5v-307h-85v294q0 66 -33.5 101.5t-91.5 35.5q-53 0 -88 -27.5t-50 -71.5v-332h-86v500zM266 -273l26 93h-47v104h106v-104l-38 -93h-47z" />
    <glyph glyph-name="oe" unicode="&#x153;" horiz-adv-x="1015" 
d="M735 -10q-72 0 -127.5 30t-89.5 81q-35 -51 -90.5 -81t-124.5 -30q-57 0 -105 20.5t-83 55.5t-54.5 82.5t-19.5 101.5t19.5 101.5t54.5 82.5t83 55.5t105 20.5q69 0 125 -30.5t91 -81.5q35 51 90.5 81.5t126.5 30.5q49 0 92 -16.5t75.5 -49t51.5 -79t19 -106.5v-12.5
t-1 -13.5h-410q1 -35 14.5 -65t36 -52t54 -34.5t68.5 -12.5q58 0 95.5 23.5t60.5 63.5l68 -47q-34 -55 -90.5 -87t-134.5 -32zM303 70q39 0 71 14t54.5 38.5t35 57t12.5 70.5q0 37 -12.5 70t-35 57.5t-54.5 38.5t-71 14t-71 -14t-55 -38.5t-35.5 -57.5t-12.5 -70
q0 -38 12.5 -70.5t35.5 -57t55 -38.5t71 -14zM733 434q-28 0 -55 -9t-49 -25.5t-38 -41t-22 -55.5h317q-5 31 -18.5 55t-34 41t-46.5 26t-54 9z" />
    <glyph glyph-name="obreve" unicode="&#x14f;" horiz-adv-x="606" 
d="M303 -10q-57 0 -105 20.5t-83 55.5t-54.5 82.5t-19.5 101.5t19.5 101.5t54.5 82.5t83 55.5t105 20.5q56 0 104 -20.5t83 -55.5t54.5 -82.5t19.5 -101.5t-19.5 -101.5t-54.5 -82.5t-83 -55.5t-104 -20.5zM303 70q39 0 71 14t54.5 38.5t35 57t12.5 70.5q0 37 -12.5 70
t-35 57.5t-54.5 38.5t-71 14t-71 -14t-55 -38.5t-35.5 -57.5t-12.5 -70q0 -38 12.5 -70.5t35.5 -57t55 -38.5t71 -14zM303 561q-33 0 -62 11t-50.5 31.5t-34 50t-12.5 66.5v10h58v-10q0 -50 29.5 -76t71.5 -26t71.5 26t29.5 76v10h58v-10q0 -37 -12.5 -66.5t-34 -50
t-50.5 -31.5t-62 -11z" />
    <glyph glyph-name="ohungarumlaut" unicode="&#x151;" horiz-adv-x="606" 
d="M303 -10q-57 0 -105 20.5t-83 55.5t-54.5 82.5t-19.5 101.5t19.5 101.5t54.5 82.5t83 55.5t105 20.5q56 0 104 -20.5t83 -55.5t54.5 -82.5t19.5 -101.5t-19.5 -101.5t-54.5 -82.5t-83 -55.5t-104 -20.5zM303 70q39 0 71 14t54.5 38.5t35 57t12.5 70.5q0 37 -12.5 70
t-35 57.5t-54.5 38.5t-71 14t-71 -14t-55 -38.5t-35.5 -57.5t-12.5 -70q0 -38 12.5 -70.5t35.5 -57t55 -38.5t71 -14zM250 730h99l-91 -156h-63zM417 730h100l-92 -156h-62z" />
    <glyph glyph-name="omacron" unicode="&#x14d;" horiz-adv-x="606" 
d="M303 -10q-57 0 -105 20.5t-83 55.5t-54.5 82.5t-19.5 101.5t19.5 101.5t54.5 82.5t83 55.5t105 20.5q56 0 104 -20.5t83 -55.5t54.5 -82.5t19.5 -101.5t-19.5 -101.5t-54.5 -82.5t-83 -55.5t-104 -20.5zM303 70q39 0 71 14t54.5 38.5t35 57t12.5 70.5q0 37 -12.5 70
t-35 57.5t-54.5 38.5t-71 14t-71 -14t-55 -38.5t-35.5 -57.5t-12.5 -70q0 -38 12.5 -70.5t35.5 -57t55 -38.5t71 -14zM142 710h322v-69h-322v69z" />
    <glyph glyph-name="uni1ECD" unicode="&#x1ecd;" horiz-adv-x="606" 
d="M303 -10q-57 0 -105 20.5t-83 55.5t-54.5 82.5t-19.5 101.5t19.5 101.5t54.5 82.5t83 55.5t105 20.5q56 0 104 -20.5t83 -55.5t54.5 -82.5t19.5 -101.5t-19.5 -101.5t-54.5 -82.5t-83 -55.5t-104 -20.5zM303 70q39 0 71 14t54.5 38.5t35 57t12.5 70.5q0 37 -12.5 70
t-35 57.5t-54.5 38.5t-71 14t-71 -14t-55 -38.5t-35.5 -57.5t-12.5 -70q0 -38 12.5 -70.5t35.5 -57t55 -38.5t71 -14zM303 -190q-25 0 -42 17t-17 41t17 41t42 17q24 0 41 -17t17 -41t-17 -41t-41 -17z" />
    <glyph glyph-name="racute" unicode="&#x155;" horiz-adv-x="359" 
d="M81 500h86v-74q7 15 21 29.5t31.5 25.5t38.5 17.5t44 6.5q13 0 23.5 -1.5t20.5 -3.5l-11 -86q-11 4 -21.5 5t-21.5 1q-38 0 -74 -24.5t-51 -71.5v-324h-86v500zM264 730h109l-125 -156h-72z" />
    <glyph glyph-name="rcaron" unicode="&#x159;" horiz-adv-x="359" 
d="M81 500h86v-74q7 15 21 29.5t31.5 25.5t38.5 17.5t44 6.5q13 0 23.5 -1.5t20.5 -3.5l-11 -86q-11 4 -21.5 5t-21.5 1q-38 0 -74 -24.5t-51 -71.5v-324h-86v500zM132 730l81 -95l81 95h90l-127 -152h-88l-127 152h90z" />
    <glyph glyph-name="uni0157" unicode="&#x157;" horiz-adv-x="359" 
d="M81 500h86v-74q7 15 21 29.5t31.5 25.5t38.5 17.5t44 6.5q13 0 23.5 -1.5t20.5 -3.5l-11 -86q-11 4 -21.5 5t-21.5 1q-38 0 -74 -24.5t-51 -71.5v-324h-86v500zM93 -273l26 93h-47v104h106v-104l-38 -93h-47z" />
    <glyph glyph-name="sacute" unicode="&#x15b;" horiz-adv-x="450" 
d="M232 -10q-67 0 -120 28.5t-76 87.5l70 39q14 -38 49.5 -58.5t77.5 -20.5q36 0 61.5 17.5t25.5 49.5q0 27 -19 45t-68 33l-50 16q-62 18 -93.5 55.5t-31.5 90.5q0 32 13.5 57.5t37 43t54.5 27t67 9.5q56 0 98 -22.5t67 -64.5l-64 -44q-17 24 -42.5 40.5t-61.5 16.5
q-32 0 -57.5 -16t-25.5 -44q0 -23 14.5 -41t56.5 -31l55 -17q65 -20 100.5 -55t35.5 -92q0 -36 -13 -64t-36.5 -47t-55.5 -29t-69 -10zM283 730h109l-125 -156h-72z" />
    <glyph glyph-name="scaron" unicode="&#x161;" horiz-adv-x="450" 
d="M232 -10q-67 0 -120 28.5t-76 87.5l70 39q14 -38 49.5 -58.5t77.5 -20.5q36 0 61.5 17.5t25.5 49.5q0 27 -19 45t-68 33l-50 16q-62 18 -93.5 55.5t-31.5 90.5q0 32 13.5 57.5t37 43t54.5 27t67 9.5q56 0 98 -22.5t67 -64.5l-64 -44q-17 24 -42.5 40.5t-61.5 16.5
q-32 0 -57.5 -16t-25.5 -44q0 -23 14.5 -41t56.5 -31l55 -17q65 -20 100.5 -55t35.5 -92q0 -36 -13 -64t-36.5 -47t-55.5 -29t-69 -10zM151 730l81 -95l81 95h90l-127 -152h-88l-127 152h90z" />
    <glyph glyph-name="scedilla" unicode="&#x15f;" horiz-adv-x="450" 
d="M232 -10q-67 0 -120 28.5t-76 87.5l70 39q14 -38 49.5 -58.5t77.5 -20.5q36 0 61.5 17.5t25.5 49.5q0 27 -19 45t-68 33l-50 16q-62 18 -93.5 55.5t-31.5 90.5q0 32 13.5 57.5t37 43t54.5 27t67 9.5q56 0 98 -22.5t67 -64.5l-64 -44q-17 24 -42.5 40.5t-61.5 16.5
q-32 0 -57.5 -16t-25.5 -44q0 -23 14.5 -41t56.5 -31l55 -17q65 -20 100.5 -55t35.5 -92q0 -36 -13 -64t-36.5 -47t-55.5 -29t-69 -10zM139 -137q33 -14 69 -14q20 0 38.5 7t18.5 26q0 14 -11.5 20.5t-27.5 6.5q-14 0 -25 -2.5t-21 -6.5l-31 22l49 81h55l-32 -52q16 7 38 7
q32 0 54 -19t22 -53q0 -44 -34.5 -67t-87.5 -23q-22 0 -44.5 4t-42.5 13z" />
    <glyph glyph-name="scircumflex" unicode="&#x15d;" horiz-adv-x="450" 
d="M232 -10q-67 0 -120 28.5t-76 87.5l70 39q14 -38 49.5 -58.5t77.5 -20.5q36 0 61.5 17.5t25.5 49.5q0 27 -19 45t-68 33l-50 16q-62 18 -93.5 55.5t-31.5 90.5q0 32 13.5 57.5t37 43t54.5 27t67 9.5q56 0 98 -22.5t67 -64.5l-64 -44q-17 24 -42.5 40.5t-61.5 16.5
q-32 0 -57.5 -16t-25.5 -44q0 -23 14.5 -41t56.5 -31l55 -17q65 -20 100.5 -55t35.5 -92q0 -36 -13 -64t-36.5 -47t-55.5 -29t-69 -10zM188 730h88l127 -152h-90l-81 94l-81 -94h-90z" />
    <glyph glyph-name="uni0219" unicode="&#x219;" horiz-adv-x="450" 
d="M232 -10q-67 0 -120 28.5t-76 87.5l70 39q14 -38 49.5 -58.5t77.5 -20.5q36 0 61.5 17.5t25.5 49.5q0 27 -19 45t-68 33l-50 16q-62 18 -93.5 55.5t-31.5 90.5q0 32 13.5 57.5t37 43t54.5 27t67 9.5q56 0 98 -22.5t67 -64.5l-64 -44q-17 24 -42.5 40.5t-61.5 16.5
q-32 0 -57.5 -16t-25.5 -44q0 -23 14.5 -41t56.5 -31l55 -17q65 -20 100.5 -55t35.5 -92q0 -36 -13 -64t-36.5 -47t-55.5 -29t-69 -10zM197 -273l26 93h-47v104h106v-104l-38 -93h-47z" />
    <glyph glyph-name="tcaron" unicode="&#x165;" horiz-adv-x="415" 
d="M295 -5q-32 0 -60 9.5t-49.5 28t-34 47.5t-12.5 68v273h-126v79h126v142h86v-142h155v-79h-155v-262q0 -48 23 -67.5t57 -19.5q25 0 43 6t29 13l26 -73q-16 -8 -43 -15.5t-65 -7.5zM284 710h86l-50 -165h-60z" />
    <glyph glyph-name="uni0163" unicode="&#x163;" horiz-adv-x="415" 
d="M295 -5q-32 0 -60 9.5t-49.5 28t-34 47.5t-12.5 68v273h-126v79h126v142h86v-142h155v-79h-155v-262q0 -48 23 -67.5t57 -19.5q25 0 43 6t29 13l26 -73q-16 -8 -43 -15.5t-65 -7.5zM238 -273l26 93h-47v104h106v-104l-38 -93h-47z" />
    <glyph glyph-name="uni021B" unicode="&#x21b;" horiz-adv-x="415" 
d="M295 -5q-32 0 -60 9.5t-49.5 28t-34 47.5t-12.5 68v273h-126v79h126v142h86v-142h155v-79h-155v-262q0 -48 23 -67.5t57 -19.5q25 0 43 6t29 13l26 -73q-16 -8 -43 -15.5t-65 -7.5zM238 -273l26 93h-47v104h106v-104l-38 -93h-47z" />
    <glyph glyph-name="ubreve" unicode="&#x16d;" horiz-adv-x="579" 
d="M498 0h-86v63q-26 -38 -67.5 -55.5t-83.5 -17.5q-41 0 -75.5 14t-59.5 40.5t-38.5 64t-13.5 84.5v307h86v-294q0 -66 32 -101.5t88 -35.5q48 0 82 27.5t50 71.5v332h86v-500zM285 561q-33 0 -62 11t-50.5 31.5t-34 50t-12.5 66.5v10h58v-10q0 -50 29.5 -76t71.5 -26
t71.5 26t29.5 76v10h58v-10q0 -37 -12.5 -66.5t-34 -50t-50.5 -31.5t-62 -11z" />
    <glyph glyph-name="uhungarumlaut" unicode="&#x171;" horiz-adv-x="579" 
d="M498 0h-86v63q-26 -38 -67.5 -55.5t-83.5 -17.5q-41 0 -75.5 14t-59.5 40.5t-38.5 64t-13.5 84.5v307h86v-294q0 -66 32 -101.5t88 -35.5q48 0 82 27.5t50 71.5v332h86v-500zM232 730h99l-91 -156h-63zM399 730h100l-92 -156h-62z" />
    <glyph glyph-name="umacron" unicode="&#x16b;" horiz-adv-x="579" 
d="M498 0h-86v63q-26 -38 -67.5 -55.5t-83.5 -17.5q-41 0 -75.5 14t-59.5 40.5t-38.5 64t-13.5 84.5v307h86v-294q0 -66 32 -101.5t88 -35.5q48 0 82 27.5t50 71.5v332h86v-500zM124 710h322v-69h-322v69z" />
    <glyph glyph-name="uogonek" unicode="&#x173;" horiz-adv-x="579" 
d="M498 0h-86v63q-26 -38 -67.5 -55.5t-83.5 -17.5q-41 0 -75.5 14t-59.5 40.5t-38.5 64t-13.5 84.5v307h86v-294q0 -66 32 -101.5t88 -35.5q48 0 82 27.5t50 71.5v332h86v-500zM432 -204q-44 0 -69 24t-25 62t22.5 66.5t51.5 51.5h86q-84 -53 -84 -101q0 -17 11 -25.5
t25 -8.5q9 0 18 2t18 7l27 -53q-15 -11 -36.5 -18t-44.5 -7z" />
    <glyph glyph-name="uring" unicode="&#x16f;" horiz-adv-x="579" 
d="M498 0h-86v63q-26 -38 -67.5 -55.5t-83.5 -17.5q-41 0 -75.5 14t-59.5 40.5t-38.5 64t-13.5 84.5v307h86v-294q0 -66 32 -101.5t88 -35.5q48 0 82 27.5t50 71.5v332h86v-500zM286 541q-25 0 -47.5 9.5t-39 26t-26 38.5t-9.5 47t9.5 47t26 38.5t39 26t47.5 9.5t47 -9.5
t38.5 -26t26 -38.5t9.5 -47t-9.5 -47t-26 -38.5t-38.5 -26t-47 -9.5zM286 592q28 0 48.5 20.5t20.5 49.5t-20.5 49.5t-48.5 20.5q-29 0 -50 -20.5t-21 -49.5t21 -49.5t50 -20.5z" />
    <glyph glyph-name="utilde" unicode="&#x169;" horiz-adv-x="579" 
d="M498 0h-86v63q-26 -38 -67.5 -55.5t-83.5 -17.5q-41 0 -75.5 14t-59.5 40.5t-38.5 64t-13.5 84.5v307h86v-294q0 -66 32 -101.5t88 -35.5q48 0 82 27.5t50 71.5v332h86v-500zM114 611q8 43 37 69t69 26q20 0 38 -7t34.5 -15t30.5 -15t26 -7q33 0 43 44h66l-3 -18
q-8 -43 -37 -69t-69 -26q-20 0 -38 7t-34.5 15t-30.5 15t-26 7q-33 0 -43 -44h-66z" />
    <glyph glyph-name="uni1EE5" unicode="&#x1ee5;" horiz-adv-x="579" 
d="M498 0h-86v63q-26 -38 -67.5 -55.5t-83.5 -17.5q-41 0 -75.5 14t-59.5 40.5t-38.5 64t-13.5 84.5v307h86v-294q0 -66 32 -101.5t88 -35.5q48 0 82 27.5t50 71.5v332h86v-500zM286 -190q-25 0 -42 17t-17 41t17 41t42 17q24 0 41 -17t17 -41t-17 -41t-41 -17z" />
    <glyph glyph-name="wacute" unicode="&#x1e83;" horiz-adv-x="763" 
d="M381 359l-123 -359h-76l-170 500h90l121 -365l125 365h66l125 -365l121 365h91l-170 -500h-76zM433 730h109l-125 -156h-72z" />
    <glyph glyph-name="wcircumflex" unicode="&#x175;" horiz-adv-x="763" 
d="M381 359l-123 -359h-76l-170 500h90l121 -365l125 365h66l125 -365l121 365h91l-170 -500h-76zM337 730h88l127 -152h-90l-81 94l-81 -94h-90z" />
    <glyph glyph-name="wdieresis" unicode="&#x1e85;" horiz-adv-x="763" 
d="M381 359l-123 -359h-76l-170 500h90l121 -365l125 365h66l125 -365l121 365h91l-170 -500h-76zM269 594q-25 0 -42 17t-17 41t17 41.5t42 17.5q24 0 41 -17.5t17 -41.5t-17 -41t-41 -17zM494 594q-24 0 -41.5 17t-17.5 41t17.5 41.5t41.5 17.5t41 -17.5t17 -41.5t-17 -41
t-41 -17z" />
    <glyph glyph-name="wgrave" unicode="&#x1e81;" horiz-adv-x="763" 
d="M381 359l-123 -359h-76l-170 500h90l121 -365l125 365h66l125 -365l121 365h91l-170 -500h-76zM346 574l-125 156h109l88 -156h-72z" />
    <glyph glyph-name="ycircumflex" unicode="&#x177;" horiz-adv-x="547" 
d="M125 -194l102 220l-219 474h95l172 -380l171 380h96l-321 -694h-96zM231 730h88l127 -152h-90l-81 94l-81 -94h-90z" />
    <glyph glyph-name="ygrave" unicode="&#x1ef3;" horiz-adv-x="547" 
d="M125 -194l102 220l-219 474h95l172 -380l171 380h96l-321 -694h-96zM240 574l-125 156h109l88 -156h-72z" />
    <glyph glyph-name="uni0233" unicode="&#x233;" horiz-adv-x="547" 
d="M125 -194l102 220l-219 474h95l172 -380l171 380h96l-321 -694h-96zM114 710h322v-69h-322v69z" />
    <glyph glyph-name="zacute" unicode="&#x17a;" horiz-adv-x="484" 
d="M40 68l286 353h-282v79h393v-69l-286 -352h295v-79h-406v68zM292 730h109l-125 -156h-72z" />
    <glyph glyph-name="zcaron" unicode="&#x17e;" horiz-adv-x="484" 
d="M40 68l286 353h-282v79h393v-69l-286 -352h295v-79h-406v68zM159 730l81 -95l81 95h90l-127 -152h-88l-127 152h90z" />
    <glyph glyph-name="zdotaccent" unicode="&#x17c;" horiz-adv-x="484" 
d="M40 68l286 353h-282v79h393v-69l-286 -352h295v-79h-406v68zM240 594q-25 0 -42 17t-17 41t17 41.5t42 17.5q24 0 41 -17.5t17 -41.5t-17 -41t-41 -17z" />
    <glyph glyph-name="ellipsis" unicode="&#x2026;" horiz-adv-x="730" 
d="M59 0v124h124v-124h-124zM298 0v124h124v-124h-124zM537 0v124h124v-124h-124z" />
    <glyph glyph-name="endash" unicode="&#x2013;" horiz-adv-x="565" 
d="M65 323h434v-86h-434v86z" />
    <glyph glyph-name="emdash" unicode="&#x2014;" horiz-adv-x="635" 
d="M65 323h505v-86h-505v86z" />
    <glyph glyph-name="guilsinglleft" unicode="&#x2039;" horiz-adv-x="303" 
d="M252 54l-58 -38l-152 234l152 234l58 -38l-114 -196z" />
    <glyph glyph-name="guilsinglright" unicode="&#x203a;" horiz-adv-x="303" 
d="M165 250l-114 196l58 38l152 -234l-152 -234l-58 38z" />
    <glyph glyph-name="quoteleft" unicode="&#x2018;" horiz-adv-x="246" 
d="M128 556h55v-124h-124v125l62 153h54z" />
    <glyph glyph-name="quoteright" unicode="&#x2019;" horiz-adv-x="235" 
d="M117 586h-55v124h123v-124l-61 -154h-54z" />
    <glyph glyph-name="quotedblleft" unicode="&#x201c;" horiz-adv-x="432" 
d="M128 556h55v-124h-124v125l62 153h54zM314 556h55v-124h-124v125l62 153h54z" />
    <glyph glyph-name="quotedblright" unicode="&#x201d;" horiz-adv-x="421" 
d="M117 586h-55v124h123v-124l-61 -154h-54zM303 586h-55v124h123v-124l-61 -154h-54z" />
    <glyph glyph-name="quotesinglbase" unicode="&#x201a;" horiz-adv-x="257" 
d="M121 0h-55v124h124v-125l-62 -153h-54z" />
    <glyph glyph-name="quotedblbase" unicode="&#x201e;" horiz-adv-x="443" 
d="M121 0h-55v124h124v-125l-62 -153h-54zM307 0h-55v124h124v-125l-62 -153h-54z" />
    <glyph glyph-name="bullet" unicode="&#x2022;" horiz-adv-x="419" 
d="M209 166q-28 0 -52.5 10.5t-43 29t-29.5 43.5t-11 53t11 53t29.5 43.5t43 29t52.5 10.5t53 -10.5t43.5 -29t29.5 -43.5t11 -53t-11 -53t-29.5 -43.5t-43.5 -29t-53 -10.5z" />
    <glyph glyph-name="minus" unicode="&#x2212;" horiz-adv-x="558" 
d="M68 328h423v-77h-423v77z" />
    <glyph glyph-name="Euro" unicode="&#x20ac;" horiz-adv-x="783" 
d="M33 404l26 55h99q16 58 49 106t78.5 83t101 54.5t116.5 19.5q42 0 77.5 -7t65 -19t54 -28.5t44.5 -35.5l-56 -64q-32 32 -77 51t-108 19q-45 0 -85 -13t-73 -36.5t-58 -56.5t-39 -73h374l-25 -55h-363q-2 -12 -3 -24.5t-1 -24.5q0 -25 3 -47h318l-23 -54h-281
q14 -41 39 -74.5t58 -57.5t73.5 -37t85.5 -13q63 0 108 19t77 51l56 -64q-41 -38 -99 -64t-142 -26q-62 0 -117.5 19.5t-101 54.5t-78.5 84t-49 108h-124l26 54h87q-2 11 -2 23v24q0 25 3 49h-114z" />
    <glyph glyph-name="uniFB01" unicode="&#xfb01;" horiz-adv-x="650" 
d="M134 421h-118v79h118v73q0 74 43 118.5t118 44.5q36 0 61.5 -8t42.5 -17l-32 -72q-11 5 -29 11.5t-39 6.5q-38 0 -58.5 -24t-20.5 -65v-68h170v-79h-170v-421h-86v421zM526 614q-26 0 -44 17.5t-18 43.5q0 25 18 43t44 18t43.5 -18t17.5 -43q0 -26 -17.5 -43.5
t-43.5 -17.5zM482 500h86v-500h-86v500z" />
    <glyph glyph-name="uniFB02" unicode="&#xfb02;" horiz-adv-x="650" 
d="M134 421h-118v79h118v73q0 74 43 118.5t118 44.5q36 0 61.5 -8t42.5 -17l-32 -72q-11 5 -29 11.5t-39 6.5q-38 0 -58.5 -24t-20.5 -65v-68h170v-79h-170v-421h-86v421zM482 730h86v-730h-86v730z" />
    <glyph glyph-name="glyph328" horiz-adv-x="249" 
d="M125 614q-26 0 -44 17.5t-18 43.5q0 25 18 43t44 18t43.5 -18t17.5 -43q0 -26 -17.5 -43.5t-43.5 -17.5z" />
    <glyph glyph-name="breve" unicode="&#x2d8;" 
d="M0 561q-33 0 -62 11t-50.5 31.5t-34 50t-12.5 66.5v10h58v-10q0 -50 29.5 -76t71.5 -26t71.5 26t29.5 76v10h58v-10q0 -37 -12.5 -66.5t-34 -50t-50.5 -31.5t-62 -11z" />
    <glyph glyph-name="caron" unicode="&#x2c7;" 
d="M-81 730l81 -95l81 95h90l-127 -152h-88l-127 152h90z" />
    <glyph glyph-name="circumflex" unicode="&#x2c6;" 
d="M-44 730h88l127 -152h-90l-81 94l-81 -94h-90z" />
    <glyph glyph-name="dotaccent" unicode="&#x2d9;" 
d="M0 594q-25 0 -42 17t-17 41t17 41.5t42 17.5q24 0 41 -17.5t17 -41.5t-17 -41t-41 -17z" />
    <glyph glyph-name="glyph333" 
d="M0 -58q-25 0 -42 17t-17 41t17 41.5t42 17.5q24 0 41 -17.5t17 -41.5t-17 -41t-41 -17z" />
    <glyph glyph-name="glyph334" 
d="M0 -190q-25 0 -42 17t-17 41t17 41t42 17q24 0 41 -17t17 -41t-17 -41t-41 -17z" />
    <glyph glyph-name="hungarumlaut" unicode="&#x2dd;" 
d="M-106 730h99l-91 -156h-63zM61 730h100l-92 -156h-62z" />
    <glyph glyph-name="glyph336" 
d="M-32 -273l26 93h-47v104h106v-104l-38 -93h-47z" />
    <glyph glyph-name="ogonek" unicode="&#x2db;" 
d="M6 -204q-44 0 -69 24t-25 62t22.5 66.5t51.5 51.5h86q-84 -53 -84 -101q0 -17 11 -25.5t25 -8.5q9 0 18 2t18 7l27 -53q-15 -11 -36.5 -18t-44.5 -7z" />
    <glyph glyph-name="ring" unicode="&#x2da;" 
d="M1 541q-25 0 -47.5 9.5t-39 26t-26 38.5t-9.5 47t9.5 47t26 38.5t39 26t47.5 9.5t47 -9.5t38.5 -26t26 -38.5t9.5 -47t-9.5 -47t-26 -38.5t-38.5 -26t-47 -9.5zM1 592q28 0 48.5 20.5t20.5 49.5t-20.5 49.5t-48.5 20.5q-29 0 -50 -20.5t-21 -49.5t21 -49.5t50 -20.5z" />
    <glyph glyph-name="tilde" unicode="&#x2dc;" 
d="M-171 611q8 43 37 69t69 26q20 0 38 -7t34.5 -15t30.5 -15t26 -7q33 0 43 44h66l-3 -18q-8 -43 -37 -69t-69 -26q-20 0 -38 7t-34.5 15t-30.5 15t-26 7q-33 0 -43 -44h-66z" />
    <glyph glyph-name="glyph340" 
d="M-31 710h86l-50 -165h-60z" />
    <glyph glyph-name="glyph341" 
d="M32 797l-26 -93h47v-105h-106v105l38 93h47z" />
    <glyph glyph-name="glyph342" 
d="M-98 596q-26 0 -43.5 17.5t-17.5 43.5q0 25 17.5 42.5t43.5 17.5q25 0 43 -17.5t18 -42.5q0 -26 -18 -43.5t-43 -17.5zM98 596q-26 0 -43.5 17.5t-17.5 43.5q0 25 17.5 42.5t43.5 17.5q25 0 43 -17.5t18 -42.5q0 -26 -18 -43.5t-43 -17.5z" />
    <glyph glyph-name="glyph343" 
d="M-215 -10l-40 40l471 480l39 -39z" />
    <glyph glyph-name="glyph344" 
d="M-161 577v68h323v-68h-323z" />
    <glyph glyph-name="glyph345" 
d="M-161 577v68h323v-68h-323z" />
    <glyph glyph-name="glyph346" 
d="M-122 254v78l244 156v-77z" />
    <glyph glyph-name="glyph347" 
d="M-16 905h109l-115 -137h-72z" />
    <glyph glyph-name="glyph348" 
d="M0 759q-33 0 -62 11t-50.5 31.5t-34 50t-12.5 65.5h58q0 -49 29.5 -75t71.5 -26t71.5 26t29.5 75h58q0 -36 -12.5 -65.5t-34 -50t-50.5 -31.5t-62 -11z" />
    <glyph glyph-name="glyph349" 
d="M-173 905h93l80 -84l81 84h93l-127 -137h-93z" />
    <glyph glyph-name="glyph350" 
d="M-91 -137q33 -14 68 -14q20 0 38.5 7t18.5 26q0 14 -11 20.5t-28 6.5q-14 0 -25 -2.5t-21 -6.5l-30 22l48 81h55l-32 -52q16 7 38 7q32 0 54 -19t22 -53q0 -44 -34.5 -67t-87.5 -23q-22 0 -44.5 4t-42.5 13z" />
    <glyph glyph-name="glyph351" 
d="M-46 905h93l127 -137h-93l-81 83l-80 -83h-93z" />
    <glyph glyph-name="glyph352" 
d="M-112 785q-25 0 -42 17t-17 41t17 41.5t42 17.5q24 0 41 -17.5t17 -41.5t-17 -41t-41 -17zM113 785q-24 0 -41.5 17t-17.5 41t17.5 41.5t41.5 17.5t41 -17.5t17 -41.5t-17 -41t-41 -17z" />
    <glyph glyph-name="glyph353" 
d="M0 785q-25 0 -42 17t-17 41t17 41.5t42 17.5q24 0 41 -17.5t17 -41.5t-17 -41t-41 -17z" />
    <glyph glyph-name="glyph354" 
d="M0 -58q-25 0 -42 17t-17 41t17 41.5t42 17.5q24 0 41 -17.5t17 -41.5t-17 -41t-41 -17z" />
    <glyph glyph-name="glyph355" 
d="M0 -190q-25 0 -42 17t-17 41t17 41.5t42 17.5q24 0 41 -17.5t17 -41.5t-17 -41t-41 -17z" />
    <glyph glyph-name="glyph356" 
d="M-32 -273l26 93h-47v104h106v-104l-38 -93h-47z" />
    <glyph glyph-name="glyph357" 
d="M21 768l-115 137h109l78 -137h-72z" />
    <glyph glyph-name="glyph358" 
d="M-106 905h99l-91 -137h-63zM61 905h100l-92 -137h-62z" />
    <glyph glyph-name="glyph359" 
d="M-161 874h322v-69h-322v69z" />
    <glyph glyph-name="glyph360" 
d="M8 -204q-43 0 -71 24t-28 62t22 66t52 52h92q-42 -26 -63 -50t-21 -49q0 -17 11 -24t25 -7q8 0 16.5 2t17.5 7l29 -58q-15 -11 -37 -18t-45 -7z" />
    <glyph glyph-name="glyph361" 
d="M0 753q-25 0 -47 9.5t-38.5 26t-26 38t-9.5 46.5t9.5 46.5t26 38t38.5 26t47 9.5t47 -9.5t38.5 -26t26.5 -38t10 -46.5t-10 -46.5t-26.5 -38t-38.5 -26t-47 -9.5zM0 804q29 0 50 20t21 49t-21 49.5t-50 20.5t-49 -20.5t-20 -49.5t20 -49t49 -20z" />
    <glyph glyph-name="glyph362" 
d="M-170 804q8 43 37 69t69 26q19 0 37.5 -7t34.5 -15t30.5 -15t26.5 -7q33 0 43 44h66l-4 -19q-8 -42 -36.5 -68t-69.5 -26q-20 0 -38 7t-34 15l-30 15t-26 7q-32 0 -44 -44h-65z" />
    <glyph glyph-name="glyph363" 
d="M-163 401h326v-82h-326v82z" />
    <glyph glyph-name="glyph364" 
d="M-283 -20l-56 52l623 698l55 -51z" />
    <glyph glyph-name="glyph365" 
d="M-163 213v84l325 210v-84z" />
    <glyph glyph-name="glyph366" 
d="M-361 605h721v-72h-721v72z" />
    </font>
</defs>
</svg>
