<?xml version="1.0" standalone="no"?>
<!DOCTYPE svg PUBLIC "-//W3C//DTD SVG 1.1//EN" "http://www.w3.org/Graphics/SVG/1.1/DTD/svg11.dtd" >
<svg xmlns="http://www.w3.org/2000/svg" xmlns:xlink="http://www.w3.org/1999/xlink" version="1.1">
<metadata>
Created by Christoph Koeberlin (http://christoph.koe.berlin)
Copyright (c) 2018 Swiss Typefaces Sarl. All rights reserved.
</metadata>
<defs>
<font id="Font" horiz-adv-x="0" >
  <font-face 
    font-family="Font"
    font-weight="700"
    font-style="italic"
    font-stretch="normal"
    units-per-em="1000"
    panose-1="2 11 8 4 0 0 0 0 0 0"
    ascent="800"
    descent="-200"
    x-height="500"
    cap-height="710"
    bbox="-363 -335 1152 993"
    underline-thickness="100"
    underline-position="-184"
    slope="-12"
    unicode-range="U+0020-FB02"
  />
<missing-glyph horiz-adv-x="634" 
d="M218 710h500l-151 -710h-500zM231 682l-139 -654l289 327zM554 28l139 654l-291 -327zM247 691l147 -321l285 321h-432zM106 19h432l-147 320z" />
    <glyph glyph-name=".notdef" horiz-adv-x="634" 
d="M218 710h500l-151 -710h-500zM231 682l-139 -654l289 327zM554 28l139 654l-291 -327zM247 691l147 -321l285 321h-432zM106 19h432l-147 320z" />
    <glyph glyph-name="glyph1" 
 />
    <glyph glyph-name="glyph2" horiz-adv-x="225" 
 />
    <glyph glyph-name="space" unicode=" " horiz-adv-x="225" 
 />
    <glyph glyph-name="exclam" unicode="!" horiz-adv-x="298" 
d="M113 449l56 261h152l-56 -261l-69 -184h-93zM5 0l38 179h179l-38 -179h-179z" />
    <glyph glyph-name="quotedbl" unicode="&#x22;" horiz-adv-x="437" 
d="M149 710h126l-63 -298h-126zM351 710h126l-63 -298h-126z" />
    <glyph glyph-name="numbersign" unicode="#" horiz-adv-x="698" 
d="M382 181h-132l-57 -181h-127l56 181h-83v114h120l36 120h-83v114h119l56 181h129l-57 -181h131l56 181h129l-57 -181h82v-114h-118l-37 -120h83v-114h-119l-57 -181h-127zM286 295h132l36 120h-131z" />
    <glyph glyph-name="dollar" unicode="$" horiz-adv-x="556" 
d="M202 -4q-69 13 -118.5 52t-75.5 96l122 78q16 -36 44 -56.5t58 -28.5l33 157l-19 10q-28 14 -53.5 32t-44.5 42t-30.5 55.5t-11.5 72.5q0 43 17 82t48.5 69t76 47.5t100.5 17.5h8l16 76h54l-18 -82q49 -11 91 -39t70 -76l-108 -86q-17 23 -36 38.5t-46 21.5l-32 -149
l37 -18q67 -35 94 -87.5t27 -109.5q0 -49 -17.5 -90t-49 -70t-74 -45.5t-93.5 -16.5q-5 0 -8.5 0.5t-8.5 0.5l-16 -78h-54zM354 199q0 20 -6 35.5t-34 33.5l-29 -136q37 4 53 23.5t16 43.5zM257 517q0 -23 9.5 -36.5t32.5 -27.5l26 125q-29 -5 -48.5 -21t-19.5 -40z" />
    <glyph glyph-name="percent" unicode="%" horiz-adv-x="1060" 
d="M165 0l600 710h170l-599 -710h-171zM817 -8q-41 0 -77 15.5t-62.5 42.5t-42 62.5t-15.5 76.5t15.5 77t42 62.5t62.5 42t77 15.5q40 0 76 -15.5t63 -42t42.5 -62.5t15.5 -77t-15.5 -76.5t-42.5 -62.5t-63 -42.5t-76 -15.5zM817 118q29 0 49 21t20 50t-20 50t-49 21
t-49.5 -21t-20.5 -50t20.5 -50t49.5 -21zM284 324q-41 0 -77 15.5t-62.5 42.5t-42 62.5t-15.5 76.5t15.5 77t42 62.5t62.5 42t77 15.5q40 0 76 -15.5t63 -42t42.5 -62.5t15.5 -77t-15.5 -76.5t-42.5 -62.5t-63 -42.5t-76 -15.5zM284 450q29 0 49 21t20 50t-20 50t-49 21
q-30 0 -50 -21t-20 -50t20 -50t50 -21z" />
    <glyph glyph-name="ampersand" unicode="&#x26;" horiz-adv-x="749" 
d="M267 -11q-45 0 -85 13t-69 38t-46 61t-17 82q0 40 11.5 70.5t32.5 55.5t50 45t63 40q-20 28 -36 61.5t-16 75.5q0 43 16.5 78t46.5 60t71 39t90 14q45 0 80.5 -14t59.5 -37t37 -54t13 -64q0 -32 -9 -57.5t-27.5 -48t-47.5 -43t-69 -42.5l82 -100l137 127l90 -98
l-142 -131l132 -160h-180l-57 68q-28 -22 -53.5 -37t-50.5 -24.5t-51 -13.5t-56 -4zM276 121q29 0 56 11.5t62 37.5l-101 123q-47 -26 -71.5 -49t-24.5 -53q0 -32 23.5 -51t55.5 -19zM298 533q0 -23 10 -38.5t25 -33.5l13 7q41 22 58 37t17 38q0 21 -13.5 36.5t-40.5 15.5
q-29 0 -49 -17.5t-20 -44.5z" />
    <glyph glyph-name="quotesingle" unicode="'" horiz-adv-x="235" 
d="M149 710h126l-63 -298h-126z" />
    <glyph glyph-name="parenleft" unicode="(" horiz-adv-x="316" 
d="M372 755q-61 -78 -99.5 -148t-61 -131.5t-31 -115t-8.5 -97.5q0 -51 2 -94t8 -85.5t16.5 -89t27.5 -106.5l-100 -44q-15 39 -29 86t-25.5 100t-18 109.5t-6.5 113.5q1 138 59.5 282.5t167.5 273.5z" />
    <glyph glyph-name="parenright" unicode=")" horiz-adv-x="316" 
d="M-27 -101q61 78 99.5 148t61 131.5t31 115t8.5 97.5q0 51 -2 94t-8 85.5t-16.5 89t-27.5 106.5l100 44q15 -39 29 -86t25.5 -100t18 -109.5t6.5 -113.5q-1 -138 -59.5 -282.5t-167.5 -273.5z" />
    <glyph glyph-name="asterisk" unicode="*" horiz-adv-x="514" 
d="M136 344l88 119l-141 46l31 98l143 -45v148h102v-148l141 46l32 -98l-142 -47l89 -119l-83 -60l-87 118l-90 -118z" />
    <glyph glyph-name="plus" unicode="+" horiz-adv-x="505" 
d="M49 355h145v145h130v-145h145v-131h-145v-145h-130v145h-145v131z" />
    <glyph glyph-name="comma" unicode="," horiz-adv-x="289" 
d="M70 0h-65l38 179h179l-38 -179l-107 -170h-88z" />
    <glyph glyph-name="hyphen" unicode="-" horiz-adv-x="405" 
d="M75 352h294l-31 -144h-294z" />
    <glyph glyph-name="period" unicode="." horiz-adv-x="289" 
d="M5 0l38 179h179l-38 -179h-179z" />
    <glyph glyph-name="slash" unicode="/" horiz-adv-x="404" 
d="M336 710h136l-386 -820h-136z" />
    <glyph glyph-name="zero" unicode="0" horiz-adv-x="631" 
d="M289 -11q-65 0 -114.5 23t-80.5 64t-41 97.5t4 124.5l33 162q25 120 98 191t195 71q65 0 114.5 -23t80 -64t41 -98t-3.5 -124l-33 -162q-12 -60 -36.5 -108.5t-61.5 -82.5t-85.5 -52.5t-109.5 -18.5zM298 138q110 0 136 125l37 175q7 32 2 57t-18.5 42.5t-34.5 26.5
t-46 9q-110 0 -136 -125l-37 -175q-7 -32 -2 -57t18.5 -42.5t34 -26.5t46.5 -9z" />
    <glyph glyph-name="one" unicode="1" horiz-adv-x="373" 
d="M211 561h-131l32 149h282l-151 -710h-151z" />
    <glyph glyph-name="two" unicode="2" horiz-adv-x="586" 
d="M19 133l327 246q42 32 63 61t21 67q0 33 -22 49.5t-54 16.5q-42 0 -73 -24.5t-44 -70.5l-146 38q15 54 43 93t65 64t80.5 37t88.5 12t84.5 -14t69.5 -40t47 -62.5t17 -81.5q0 -38 -7 -71.5t-24.5 -64.5t-47 -62t-74.5 -64l-151 -113h229l-32 -149h-488z" />
    <glyph glyph-name="three" unicode="3" horiz-adv-x="565" 
d="M259 -12q-49 0 -93 13t-79 36.5t-58.5 57t-32.5 75.5l145 53q10 -38 40.5 -62t77.5 -24q24 0 43 8t32 21t20 30t7 36q0 34 -24.5 59.5t-66.5 25.5h-94l26 124l134 123h-214l31 146h427l-25 -118l-175 -160q67 -17 101.5 -72t34.5 -128q0 -48 -17 -92t-49.5 -77.5
t-80.5 -54t-110 -20.5z" />
    <glyph glyph-name="four" unicode="4" horiz-adv-x="641" 
d="M342 154h-347l26 122l454 434h136l-89 -418h91l-29 -138h-91l-33 -154h-151zM371 292l38 181l-189 -181h151z" />
    <glyph glyph-name="five" unicode="5" horiz-adv-x="588" 
d="M279 -11q-46 0 -88.5 13t-77 37t-59 57.5t-34.5 75.5l146 52q13 -42 44 -64t74 -22q22 0 41 8t33.5 21.5t23 32.5t8.5 42q0 16 -4.5 32.5t-14.5 30t-26.5 21.5t-39.5 8q-31 0 -56 -14.5t-40 -38.5h-142l91 429h432l-31 -146h-281l-24 -115q20 11 46.5 16t51.5 5
q44 0 79.5 -17.5t60.5 -47t38.5 -69t13.5 -82.5q0 -55 -15.5 -103.5t-48 -84.5t-82.5 -56.5t-119 -20.5z" />
    <glyph glyph-name="six" unicode="6" horiz-adv-x="583" 
d="M279 -11q-60 0 -106 18.5t-78 48.5t-48.5 68.5t-16.5 77.5t6.5 71.5t22 63.5t40.5 63t61 71l225 239h198l-232 -248q39 -3 73.5 -20t61 -44.5t41.5 -65.5t15 -84q0 -55 -18.5 -102t-52.5 -82t-82.5 -55t-109.5 -20zM280 134q47 0 76.5 30t29.5 78q0 38 -26.5 65t-68.5 27
q-47 0 -76.5 -30t-29.5 -78q0 -38 26.5 -65t68.5 -27z" />
    <glyph glyph-name="seven" unicode="7" horiz-adv-x="554" 
d="M412 564h-312l31 146h503l-28 -132l-439 -578h-183z" />
    <glyph glyph-name="eight" unicode="8" horiz-adv-x="595" 
d="M545 232q0 -64 -22 -110t-59.5 -75.5t-86 -43.5t-100.5 -14q-60 0 -105.5 18t-76.5 47.5t-46.5 67t-15.5 76.5q0 28 6.5 57.5t21.5 56.5t39.5 50t60.5 40q-41 46 -41 113q0 46 17.5 84t49.5 65.5t77 42.5t101 15q48 0 87 -14.5t66.5 -39t43 -57t16.5 -68.5
q1 -51 -24 -94.5t-71 -75.5q32 -29 47 -65t15 -76zM188 214q0 -36 23.5 -61.5t71.5 -24.5q50 1 78 30.5t28 73.5q0 17 -6 33t-18 28t-29.5 18.5t-41.5 6.5q-50 -1 -78 -31.5t-28 -72.5zM266 503q0 -35 21 -51.5t56 -16.5q41 1 65.5 24.5t24.5 61.5q0 35 -21 51.5t-56 16.5
q-41 -1 -65.5 -24.5t-24.5 -61.5z" />
    <glyph glyph-name="nine" unicode="9" horiz-adv-x="584" 
d="M272 249q-39 3 -73 20t-60 44.5t-41 65.5t-15 84q0 55 18.5 102t52.5 82t82.5 55t109.5 20q60 0 106 -18.5t78 -48.5t48.5 -68.5t16.5 -77.5t-6.5 -71.5t-22 -63.5t-40.5 -63t-61 -71l-225 -240h-200zM334 377q47 0 76.5 30t29.5 78q0 38 -26.5 65t-68.5 27
q-47 0 -76.5 -30t-29.5 -78q0 -38 26.5 -65t68.5 -27z" />
    <glyph glyph-name="colon" unicode=":" horiz-adv-x="290" 
d="M67 311l38 179h179l-38 -179h-179zM0 0l38 179h179l-38 -179h-179z" />
    <glyph glyph-name="semicolon" unicode=";" horiz-adv-x="291" 
d="M67 311l38 179h179l-38 -179h-179zM66 0h-65l38 179h179l-38 -179l-107 -170h-88z" />
    <glyph glyph-name="equal" unicode="=" horiz-adv-x="572" 
d="M79 250h420v-130h-420v130zM79 459h420v-131h-420v131z" />
    <glyph glyph-name="question" unicode="?" horiz-adv-x="565" 
d="M191 263q7 31 21 55t32.5 43t39 33.5t39.5 25.5q48 27 73 49.5t25 55.5q0 24 -20 36t-49 12q-15 0 -33.5 -3.5t-38 -12.5t-39 -24.5t-35.5 -38.5l-113 92q20 30 50 55t65 43t74 28t77 10q48 0 87 -13.5t67 -38.5t43.5 -59.5t15.5 -76.5q0 -43 -15 -76t-37 -58t-47 -43
t-46 -31q-22 -14 -44.5 -28.5t-34.5 -34.5h-157zM124 0l38 179h179l-38 -179h-179z" />
    <glyph glyph-name="at" unicode="@" horiz-adv-x="805" 
d="M409 -11q-83 0 -147 27t-108.5 74.5t-67.5 111t-23 135.5q0 85 31.5 156t84.5 122t123.5 79t147.5 28q73 0 136 -22t109.5 -63t72.5 -99.5t26 -131.5q0 -65 -14.5 -112t-39.5 -77.5t-59 -45t-72 -14.5q-35 0 -64 14t-43 34q-22 -22 -53 -34t-69 -12t-67 14t-49 37.5
t-30.5 54.5t-10.5 66q0 45 15 84.5t42 69.5t63.5 47.5t78.5 17.5q39 0 65.5 -17.5t37.5 -38.5l9 46h105l-46 -216q-7 -33 -0.5 -56t35.5 -23q38 0 60 37t22 126q0 58 -21.5 102t-57.5 73t-83 43.5t-99 14.5q-58 0 -112 -20t-95 -59t-66 -95.5t-25 -129.5q0 -60 17 -109
t50 -84t81 -54.5t110 -19.5q49 0 94 10t86 32l32 -79q-47 -23 -102.5 -33.5t-109.5 -10.5zM403 257q26 0 45.5 11t32.5 30l24 109q-6 14 -25 29.5t-50 15.5q-35 0 -60 -24.5t-33 -62.5q-5 -22 -2 -41.5t11.5 -34.5t23 -23.5t33.5 -8.5z" />
    <glyph glyph-name="A" unicode="A" horiz-adv-x="752" 
d="M398 710h144l153 -710h-154l-31 150h-292l-94 -150h-181zM305 288h176l-43 210z" />
    <glyph glyph-name="B" unicode="B" horiz-adv-x="633" 
d="M169 710h214q52 0 92 -15t68 -40.5t42.5 -58t14.5 -67.5q0 -46 -20.5 -89.5t-60.5 -73.5q32 -21 51 -54t19 -84q0 -47 -17.5 -88.5t-52.5 -72.5t-87.5 -49t-123.5 -18h-290zM323 147q53 0 80.5 23t27.5 56q0 25 -17.5 43.5t-49.5 18.5h-127l-30 -141h116zM342 423
q49 0 74 24t25 57q0 25 -17.5 42.5t-51.5 17.5h-76l-30 -141h76z" />
    <glyph glyph-name="C" unicode="C" horiz-adv-x="757" 
d="M390 -12q-80 0 -142 26.5t-104.5 72.5t-64.5 107t-22 129q0 78 26 150t77 127.5t126.5 88.5t174.5 33q61 0 111.5 -16t90.5 -43.5t68 -65.5t43 -83l-148 -59q-19 48 -62.5 80.5t-112.5 32.5q-54 0 -97.5 -19t-73.5 -51t-46 -73.5t-16 -87.5q0 -42 11 -77.5t34.5 -61.5
t58 -41t81.5 -15q69 0 116 33.5t76 81.5l140 -76q-20 -41 -52.5 -76t-76 -61t-98 -41t-118.5 -15z" />
    <glyph glyph-name="D" unicode="D" horiz-adv-x="725" 
d="M287 146q51 0 97.5 16.5t82 47.5t56 75.5t20.5 99.5q0 39 -13 71.5t-37 56.5t-58.5 37.5t-78.5 13.5h-58l-89 -418h78zM169 710h205q75 0 136 -25t104.5 -66.5t67.5 -96.5t24 -115q0 -104 -32.5 -180.5t-90.5 -127t-137 -75t-172 -24.5h-256z" />
    <glyph glyph-name="E" unicode="E" horiz-adv-x="571" 
d="M169 710h450l-32 -152h-291l-27 -127h231l-33 -152h-231l-27 -127h291l-32 -152h-450z" />
    <glyph glyph-name="F" unicode="F" horiz-adv-x="543" 
d="M169 710h437l-32 -152h-278l-28 -128h217l-32 -152h-217l-59 -278h-159z" />
    <glyph glyph-name="G" unicode="G" horiz-adv-x="759" 
d="M386 -12q-81 0 -142.5 28.5t-102.5 75.5t-61.5 107.5t-21.5 125.5q-1 75 24.5 146.5t76 127t125.5 89.5t173 34q101 0 171 -36t108 -95l-126 -99q-24 32 -64 54t-100 22q-53 0 -95 -19t-71 -50.5t-45 -73t-16 -86.5q0 -42 10.5 -78t33.5 -62.5t60 -41.5t90 -15
q31 0 63.5 7.5t59.5 24.5l24 107h-146l32 149h301l-75 -348q-48 -47 -118.5 -70.5t-167.5 -23.5z" />
    <glyph glyph-name="H" unicode="H" horiz-adv-x="754" 
d="M169 710h159l-59 -278h286l59 278h159l-151 -710h-159l60 281h-286l-60 -281h-159z" />
    <glyph glyph-name="I" unicode="I" horiz-adv-x="309" 
d="M169 710h159l-151 -710h-159z" />
    <glyph glyph-name="J" unicode="J" horiz-adv-x="471" 
d="M157 -12q-38 0 -70 9.5t-58 24t-44 31.5t-27 32l110 97q14 -20 35.5 -33t47.5 -13q29 0 49 16.5t28 51.5l107 506h159l-109 -516q-23 -109 -79 -157.5t-149 -48.5z" />
    <glyph glyph-name="K" unicode="K" horiz-adv-x="696" 
d="M244 320l-68 -320h-158l151 710h158l-65 -303l303 303h198l-357 -357l263 -353h-186z" />
    <glyph glyph-name="L" unicode="L" horiz-adv-x="543" 
d="M169 710h159l-119 -558h294l-32 -152h-453z" />
    <glyph glyph-name="M" unicode="M" horiz-adv-x="883" 
d="M169 710h145l134 -362l309 362h145l-151 -710h-160l83 394l-206 -242h-103l-99 267l-89 -419h-159z" />
    <glyph glyph-name="N" unicode="N" horiz-adv-x="792" 
d="M523 0l-249 457l-97 -457h-159l151 710h137l248 -456l97 456h160l-151 -710h-137z" />
    <glyph glyph-name="O" unicode="O" horiz-adv-x="822" 
d="M412 142q48 0 90 18t73 49t48.5 73t17.5 91q0 43 -12.5 78.5t-36.5 61.5t-60.5 40.5t-84.5 14.5t-90 -18t-73 -49t-48.5 -73t-17.5 -91q0 -43 12.5 -78.5t36.5 -61.5t60.5 -40.5t84.5 -14.5zM400 -12q-81 0 -144.5 26t-108 71.5t-67.5 106.5t-23 131q0 81 27 153
t78.5 127t126.5 87t170 32q81 0 144.5 -26t108 -71.5t67.5 -106.5t23 -131q0 -81 -27 -153t-78.5 -127t-126.5 -87t-170 -32z" />
    <glyph glyph-name="P" unicode="P" horiz-adv-x="600" 
d="M169 710h202q54 0 99 -17.5t77.5 -47t50.5 -69t18 -83.5q0 -53 -17 -101.5t-53 -85.5t-93.5 -59t-138.5 -22h-89l-48 -225h-159zM340 374q24 0 45.5 8t37.5 22t25 32.5t9 40.5q0 16 -5 31t-16 26.5t-28.5 18.5t-43.5 7h-68l-40 -186h84z" />
    <glyph glyph-name="Q" unicode="Q" horiz-adv-x="834" 
d="M400 -13q-81 0 -144.5 26t-108 71.5t-67.5 106.5t-23 131q0 81 27 153t78.5 127t126.5 87t170 32q81 0 144.5 -26t108 -71.5t67.5 -106.5t23 -131q0 -72 -21 -137t-63 -118l69 -66l-98 -102l-80 75q-44 -24 -96 -37.5t-113 -13.5zM412 141q40 0 76 12l-98 94l98 102
l114 -108q18 28 28.5 61t10.5 70q0 43 -12.5 78.5t-36.5 61.5t-60.5 40.5t-84.5 14.5t-90 -18t-73 -49t-48.5 -73t-17.5 -91q0 -43 12.5 -78.5t36.5 -61.5t60.5 -40.5t84.5 -14.5z" />
    <glyph glyph-name="R" unicode="R" horiz-adv-x="658" 
d="M169 710h240q54 0 95.5 -15t69 -40t41.5 -58t14 -69q0 -38 -9.5 -74t-31.5 -66.5t-58 -53.5t-90 -34l190 -300h-176l-185 293h-30l-62 -293h-159zM375 428q42 0 67 21.5t25 53.5q0 25 -17 43t-55 18h-98l-29 -136h107z" />
    <glyph glyph-name="S" unicode="S" horiz-adv-x="572" 
d="M266 -12q-43 0 -84 11t-76.5 31.5t-63.5 49.5t-44 64l135 86q10 -24 27 -41.5t36.5 -29t40.5 -17t39 -5.5q45 0 64.5 18t19.5 44q0 12 -3.5 22.5t-12.5 20.5t-25 20.5t-40 22.5l-36 18q-74 37 -107.5 83.5t-33.5 119.5q0 43 16 82t47.5 69t78 47.5t108.5 17.5
q33 0 66 -6.5t63.5 -21t57.5 -38.5t49 -58l-119 -94q-22 37 -54.5 52.5t-69.5 15.5q-33 0 -57.5 -13.5t-24.5 -42.5t21 -45.5t69 -39.5l30 -15q74 -38 106.5 -86.5t32.5 -124.5q0 -49 -17.5 -89t-50.5 -68.5t-80.5 -44t-107.5 -15.5z" />
    <glyph glyph-name="T" unicode="T" horiz-adv-x="559" 
d="M260 558h-181l32 152h524l-32 -152h-183l-119 -558h-160z" />
    <glyph glyph-name="U" unicode="U" horiz-adv-x="717" 
d="M653 288q-17 -78 -43.5 -135t-65.5 -93.5t-93.5 -54t-126.5 -17.5q-64 0 -116.5 23.5t-87.5 65.5t-48.5 100t1.5 127l86 406h160l-89 -417q-9 -40 -3.5 -68.5t21 -47t39.5 -27t53 -8.5q59 0 97.5 34t53.5 106l91 428h161z" />
    <glyph glyph-name="V" unicode="V" horiz-adv-x="727" 
d="M95 710h159l90 -481l293 481h183l-442 -710h-143z" />
    <glyph glyph-name="W" unicode="W" horiz-adv-x="1032" 
d="M104 710h167l37 -434l231 434h140l36 -447l227 447h174l-372 -710h-144l-38 459l-245 -459h-143z" />
    <glyph glyph-name="X" unicode="X" horiz-adv-x="699" 
d="M-66 0l346 369l-181 341h171l120 -228l210 228h189l-329 -362l193 -348h-171l-128 240l-231 -240h-189z" />
    <glyph glyph-name="Y" unicode="Y" horiz-adv-x="695" 
d="M274 298l-171 412h165l103 -263l216 263h194l-347 -412l-63 -298h-160z" />
    <glyph glyph-name="Z" unicode="Z" horiz-adv-x="623" 
d="M4 109l407 449h-306l32 152h537l-23 -109l-408 -449h318l-32 -152h-548z" />
    <glyph glyph-name="bracketleft" unicode="[" horiz-adv-x="331" 
d="M187 800h230l-23 -108h-104l-158 -744h104l-23 -108h-230z" />
    <glyph glyph-name="bracketright" unicode="]" horiz-adv-x="331" 
d="M170 -160h-230l23 108h104l158 744h-104l23 108h230z" />
    <glyph glyph-name="underscore" unicode="_" horiz-adv-x="508" 
d="M-17 0h435l-24 -114h-435z" />
    <glyph glyph-name="grave" unicode="`" 
d="M142 556l-111 174h168l43 -174h-100z" />
    <glyph glyph-name="a" unicode="a" horiz-adv-x="607" 
d="M277 122q19 0 35 6t29 14.5t22.5 18t15.5 17.5l32 149q-11 19 -33 33t-54 14q-27 0 -52.5 -10.5t-45 -30t-31.5 -46t-12 -59.5q0 -48 24 -77t70 -29zM228 -11q-47 0 -83 18t-61.5 49t-38.5 71.5t-13 85.5q0 65 21 120t58.5 94.5t88 61.5t110.5 22q43 0 78 -15.5t51 -34.5
l8 39h151l-106 -500h-151l7 32q-17 -17 -49.5 -30t-70.5 -13z" />
    <glyph glyph-name="b" unicode="b" horiz-adv-x="607" 
d="M330 378q-20 0 -35.5 -6t-28.5 -14.5t-22.5 -18t-15.5 -17.5l-32 -149q11 -19 33 -33t54 -14q27 0 52.5 10.5t45 30t31.5 46t12 59.5q0 48 -24 77t-70 29zM379 511q46 0 82.5 -18t62 -49t38.5 -71.5t13 -85.5q0 -65 -21 -120t-58.5 -94.5t-88 -61.5t-110.5 -22
q-43 0 -78 15.5t-51 34.5l-8 -39h-151l155 730h151l-56 -262q17 17 49.5 30t70.5 13z" />
    <glyph glyph-name="c" unicode="c" horiz-adv-x="558" 
d="M278 -12q-62 0 -107.5 20t-76.5 53t-46 76t-15 89q0 60 21 112.5t58.5 91t90.5 60.5t116 22q41 0 77.5 -12t66 -33t50.5 -49.5t32 -61.5l-135 -63q-10 34 -36 56t-66 22q-27 0 -49.5 -10.5t-39 -28.5t-25.5 -42t-9 -51q0 -50 26 -80t74 -30q42 0 72 21.5t44 53.5l125 -81
q-36 -62 -95.5 -98.5t-152.5 -36.5z" />
    <glyph glyph-name="d" unicode="d" horiz-adv-x="607" 
d="M228 -11q-47 0 -83 18t-61.5 49t-38.5 71.5t-13 85.5q0 65 21 120t58.5 94.5t88 61.5t110.5 22q43 0 78 -15.5t51 -34.5l57 269h151l-155 -730h-151l7 32q-17 -17 -49.5 -30t-70.5 -13zM277 122q19 0 35 6t29 14.5t22.5 18t15.5 17.5l32 149q-11 19 -33 33t-54 14
q-27 0 -52.5 -10.5t-45 -30t-31.5 -46t-12 -59.5q0 -48 24 -77t70 -29z" />
    <glyph glyph-name="e" unicode="e" horiz-adv-x="581" 
d="M277 -11q-61 0 -106.5 20t-76 53t-45.5 76t-15 89q0 62 19.5 114.5t56 90t89.5 58.5t120 21q57 0 104.5 -21.5t79 -60.5t44 -94t0.5 -121h-372q3 -22 13 -38.5t25.5 -27.5t34.5 -16.5t39 -5.5q42 0 66.5 16.5t44.5 40.5l111 -86q-35 -49 -90.5 -78.5t-141.5 -29.5z
M308 388q-18 0 -37.5 -4.5t-36.5 -14t-31 -23.5t-21 -33h224q-5 38 -33 56.5t-65 18.5z" />
    <glyph glyph-name="f" unicode="f" horiz-adv-x="463" 
d="M158 369h-120l28 131h120l12 57q17 83 72 131t159 48q52 0 86 -14.5t51 -25.5l-78 -117q-8 6 -24 13.5t-39 7.5q-29 0 -50 -14.5t-29 -46.5l-9 -39h167l-28 -131h-167l-78 -369h-151z" />
    <glyph glyph-name="g" unicode="g" horiz-adv-x="610" 
d="M222 -204q-36 0 -71.5 6t-66.5 16.5t-56 25t-40 31.5l96 106q27 -26 65.5 -39.5t74.5 -13.5q19 0 39 5.5t37.5 17t31 30t18.5 44.5l6 29q-17 -17 -49.5 -30t-67.5 -13q-47 0 -85 17.5t-64.5 47t-41 68t-14.5 80.5q0 63 21 115.5t58 91t88 59.5t111 21q43 0 78.5 -15.5
t51.5 -34.5l8 39h151l-102 -484q-14 -65 -40.5 -107.5t-62.5 -67.5t-80 -35t-94 -10zM282 144q20 0 36.5 6t29.5 14.5t23 18t16 17.5l27 127q-11 19 -33 33t-56 14q-29 0 -54 -9.5t-44.5 -27t-30.5 -41.5t-11 -52q0 -45 24.5 -72.5t72.5 -27.5z" />
    <glyph glyph-name="h" unicode="h" horiz-adv-x="600" 
d="M164 730h151l-56 -266q26 23 57.5 35t74.5 12q47 0 81.5 -20.5t55 -53.5t27 -75t-2.5 -85l-59 -277h-151l56 265q4 22 3.5 41.5t-8 34.5t-23 24t-41.5 9q-24 0 -51 -11.5t-48 -34.5l-70 -328h-151z" />
    <glyph glyph-name="i" unicode="i" horiz-adv-x="275" 
d="M220 548q-19 0 -36 7.5t-30 20t-20.5 29.5t-7.5 37q0 19 7.5 36.5t20.5 30t30 20t36 7.5q20 0 37.5 -7.5t30 -20t20 -30t7.5 -36.5q0 -20 -7.5 -37t-20 -29.5t-30 -20t-37.5 -7.5zM115 500h151l-106 -500h-151z" />
    <glyph glyph-name="j" unicode="j" horiz-adv-x="283" 
d="M-55 -199q-43 0 -80.5 10t-53.5 19l61 116q17 -8 32.5 -11.5t29.5 -3.5q32 0 54.5 23.5t33.5 73.5l101 472h151l-109 -510q-22 -103 -80 -146t-140 -43zM227 548q-19 0 -36 7.5t-30 20t-20.5 29.5t-7.5 37q0 19 7.5 36.5t20.5 30t30 20t36 7.5q20 0 37.5 -7.5t30 -20
t20 -30t7.5 -36.5q0 -20 -7.5 -37t-20 -29.5t-30 -20t-37.5 -7.5z" />
    <glyph glyph-name="k" unicode="k" horiz-adv-x="558" 
d="M208 226l-48 -226h-151l155 730h151l-87 -407l174 177h189l-237 -241l175 -259h-169z" />
    <glyph glyph-name="l" unicode="l" horiz-adv-x="275" 
d="M164 730h151l-155 -730h-151z" />
    <glyph glyph-name="m" unicode="m" horiz-adv-x="893" 
d="M320 374q-25 0 -49 -13t-41 -33l-70 -328h-151l106 500h151l-7 -36q24 22 54.5 34.5t67.5 12.5q40 0 69 -15t49 -41q37 31 76 43.5t87 12.5q55 0 94 -21.5t61.5 -56t29 -76.5t-2.5 -84l-58 -273h-151l56 265q5 22 4.5 42t-7.5 35t-21 23.5t-37 8.5q-29 0 -54 -11.5
t-39 -31.5q0 -30 -6 -58l-58 -273h-151l56 265q4 21 4 40.5t-6.5 34.5t-20 24.5t-35.5 9.5z" />
    <glyph glyph-name="n" unicode="n" horiz-adv-x="600" 
d="M115 500h151l-7 -36q26 23 57.5 35t74.5 12q47 0 81.5 -20.5t55 -53.5t27 -75t-2.5 -85l-59 -277h-151l56 265q4 22 3.5 41.5t-8 34.5t-23 24t-41.5 9q-24 0 -51 -11.5t-48 -34.5l-70 -328h-151z" />
    <glyph glyph-name="o" unicode="o" horiz-adv-x="592" 
d="M286 129q26 0 48.5 10t38.5 28t25 42t9 51q0 50 -26.5 80t-74.5 30q-26 0 -48.5 -10t-38.5 -28t-25 -42t-9 -51q0 -50 26.5 -80t74.5 -30zM273 -12q-60 0 -105 20t-75 53t-45 76t-15 89q0 60 20.5 112.5t58 90.5t90.5 60t117 22q60 0 105 -20t75 -53t45 -76t15 -89
q0 -60 -20.5 -112.5t-58 -90.5t-90.5 -60t-117 -22z" />
    <glyph glyph-name="p" unicode="p" horiz-adv-x="607" 
d="M330 378q-20 0 -35.5 -6t-28.5 -14.5t-22.5 -18t-15.5 -17.5l-32 -149q11 -19 33 -33t54 -14q27 0 52.5 10.5t45 30t31.5 46t12 59.5q0 48 -24 77t-70 29zM379 511q46 0 82.5 -18t62 -49t38.5 -71.5t13 -85.5q0 -65 -21 -120t-58.5 -94.5t-88 -61.5t-110.5 -22
q-43 0 -78 15.5t-51 34.5l-49 -233h-151l147 694h151l-7 -32q17 17 49.5 30t70.5 13z" />
    <glyph glyph-name="q" unicode="q" horiz-adv-x="607" 
d="M277 122q19 0 35 6t29 14.5t22.5 18t15.5 17.5l32 149q-11 19 -33 33t-54 14q-27 0 -52.5 -10.5t-45 -30t-31.5 -46t-12 -59.5q0 -48 24 -77t70 -29zM228 -11q-47 0 -83 18t-61.5 49t-38.5 71.5t-13 85.5q0 65 21 120t58.5 94.5t88 61.5t110.5 22q43 0 78 -15.5t51 -34.5
l8 39h151l-147 -694h-151l48 226q-17 -17 -49.5 -30t-70.5 -13z" />
    <glyph glyph-name="r" unicode="r" horiz-adv-x="394" 
d="M115 500h151l-12 -56q18 26 52.5 44t72.5 18q20 0 35.5 -3.5t22.5 -6.5l-54 -144q-5 2 -16 5.5t-28 3.5q-23 0 -55.5 -10t-56.5 -35l-67 -316h-151z" />
    <glyph glyph-name="s" unicode="s" horiz-adv-x="466" 
d="M207 -12q-31 0 -62 6.5t-59 20t-51 34t-38 49.5l116 82q8 -16 20.5 -27.5t27 -19t29.5 -11.5t28 -4q20 0 32 7t12 20q0 14 -12 22t-42 19l-31 11q-55 20 -83.5 58.5t-28.5 86.5q0 41 15 72.5t41.5 53t62.5 32.5t78 11q57 0 106.5 -26t74.5 -76l-109 -70q-16 27 -37 37
t-39 10q-17 0 -29 -7t-12 -22q0 -8 6.5 -17t28.5 -17l42 -15q56 -20 87.5 -54.5t31.5 -87.5q0 -46 -17.5 -79.5t-46 -55.5t-65.5 -32.5t-77 -10.5z" />
    <glyph glyph-name="t" unicode="t" horiz-adv-x="474" 
d="M298 -6q-47 0 -83.5 15.5t-60 44.5t-31.5 71.5t3 96.5l31 147h-120l28 131h120l32 152h151l-32 -152h150l-28 -131h-150l-33 -156q-10 -47 9 -64.5t56 -17.5q17 0 33.5 4.5t29.5 11.5l19 -129q-20 -10 -51 -17t-73 -7z" />
    <glyph glyph-name="u" unicode="u" horiz-adv-x="588" 
d="M201 -8q-37 0 -70 17t-54.5 49t-29.5 78t4 105l55 259h151l-55 -259q-11 -54 4 -82.5t59 -28.5q26 0 51.5 13t45.5 45l66 312h151l-106 -500h-149l7 40q-26 -23 -58 -35.5t-72 -12.5z" />
    <glyph glyph-name="v" unicode="v" horiz-adv-x="574" 
d="M51 500h149l62 -315l196 315h171l-325 -500h-140z" />
    <glyph glyph-name="w" unicode="w" horiz-adv-x="809" 
d="M55 500h153l22 -313l169 313h116l25 -304l151 304h168l-270 -500h-152l-25 263l-146 -263h-152z" />
    <glyph glyph-name="x" unicode="x" horiz-adv-x="567" 
d="M264 137l-136 -137h-181l245 244l-135 256h160l81 -157l147 157h180l-255 -268l134 -232h-162z" />
    <glyph glyph-name="y" unicode="y" horiz-adv-x="574" 
d="M159 31l-107 469h149l62 -315l196 315h171l-452 -694h-166z" />
    <glyph glyph-name="z" unicode="z" horiz-adv-x="502" 
d="M13 118l264 246h-209l29 136h412l-25 -119l-263 -245h219l-29 -136h-423z" />
    <glyph glyph-name="braceleft" unicode="{" horiz-adv-x="345" 
d="M175 -160q-36 0 -66 11.5t-49.5 33t-26.5 52.5t1 71l45 213q5 22 -3.5 38.5t-37.5 16.5h-8l23 108h8q29 0 44 15.5t20 37.5l47 221q7 36 19.5 62.5t33 44.5t49.5 26.5t70 8.5h89l-23 -108h-48q-31 0 -46 -12.5t-22 -44.5l-46 -217q-11 -50 -33 -70.5t-51 -27.5
q26 -7 38 -33.5t3 -70.5l-45 -211q-12 -57 44 -57h48l-23 -108h-54z" />
    <glyph glyph-name="bar" unicode="|" horiz-adv-x="334" 
d="M113 710h126v-820h-126v820z" />
    <glyph glyph-name="braceright" unicode="}" horiz-adv-x="345" 
d="M196 801q36 0 66 -11.5t49.5 -33t26.5 -52.5t-1 -71l-45 -213q-5 -22 3.5 -38.5t37.5 -16.5h8l-23 -108h-8q-29 0 -44 -15.5t-20 -37.5l-47 -221q-7 -36 -19.5 -62.5t-33 -44.5t-49.5 -26.5t-70 -8.5h-89l23 108h48q31 0 46 12.5t22 44.5l46 217q11 50 33 70.5t51 27.5
q-26 7 -38 33.5t-3 70.5l45 211q12 57 -44 57h-48l23 108h54z" />
    <glyph glyph-name="uni00A0" unicode="&#xa0;" horiz-adv-x="225" 
 />
    <glyph glyph-name="exclamdown" unicode="&#xa1;" horiz-adv-x="283" 
d="M177 69l-55 -263h-152l55 263l69 186h93zM66 321l38 179h179l-38 -179h-179z" />
    <glyph glyph-name="sterling" unicode="&#xa3;" horiz-adv-x="587" 
d="M72 385h74q-2 18 -3.5 37t-1.5 39q0 60 18 108.5t52.5 82t83.5 52t112 18.5q41 0 75 -10t61 -27t45.5 -40t28.5 -50l-124 -79q-11 22 -35.5 39.5t-59.5 17.5q-45 0 -75.5 -28.5t-30.5 -74.5q0 -23 2.5 -43.5t5.5 -41.5h167l-12 -57h-147q0 -8 0.5 -14.5t0.5 -14.5
q0 -32 -5 -69.5t-35 -80.5h263l-32 -149h-510l32 149h95q23 35 32 66t9 65q0 24 -3 48h-95z" />
    <glyph glyph-name="yen" unicode="&#xa5;" horiz-adv-x="740" 
d="M98 355h181l-156 355h174l104 -260l214 260h194l-306 -355h180l-12 -57h-217l-16 -76h217l-12 -57h-217l-35 -165h-151l35 165h-217l12 57h217l17 76h-218z" />
    <glyph glyph-name="dieresis" unicode="&#xa8;" 
d="M19 562q-17 0 -31.5 6.5t-25.5 17t-17.5 25t-6.5 30.5q0 34 23.5 57.5t57.5 23.5q16 0 30.5 -6.5t25 -17.5t17 -25.5t6.5 -31.5q0 -32 -23.5 -55.5t-55.5 -23.5zM256 562q-33 0 -56.5 23.5t-23.5 55.5q0 34 23.5 57.5t56.5 23.5t56.5 -23.5t23.5 -57.5q0 -32 -23.5 -55.5
t-56.5 -23.5z" />
    <glyph glyph-name="copyright" unicode="&#xa9;" horiz-adv-x="817" 
d="M428 76q58 0 108.5 22t88.5 60t60 88.5t22 108.5t-22 108.5t-60 88.5t-88.5 60t-108.5 22q-57 0 -108 -22t-88.5 -60t-59.5 -88.5t-22 -108.5t22 -108.5t59.5 -88.5t88.5 -60t108 -22zM428 -12q-75 0 -142 29t-116.5 79t-78.5 116.5t-29 142.5t29 142.5t78.5 116.5
t116.5 79t142 29q76 0 142.5 -29t116.5 -79t79 -116.5t29 -142.5t-29 -142.5t-79 -116.5t-116.5 -79t-142.5 -29zM429 163q-40 0 -75 15t-61 41t-41 61t-15 75q0 39 15 74t41 61.5t61 41.5t75 15q59 0 105 -28t70 -75l-78 -42q-15 28 -38.5 44t-58.5 16q-22 0 -41 -8.5
t-33 -23.5t-22 -34.5t-8 -40.5q0 -22 8 -41.5t22 -34t33 -23t41 -8.5q35 0 58.5 16t38.5 43l78 -41q-24 -47 -70 -75t-105 -28z" />
    <glyph glyph-name="guillemotleft" unicode="&#xab;" horiz-adv-x="528" 
d="M436 70l-95 -54l-102 234l201 234l88 -64l-139 -182zM225 70l-95 -54l-102 234l201 234l88 -64l-139 -182z" />
    <glyph glyph-name="uni00AD" unicode="&#xad;" horiz-adv-x="405" 
d="M75 352h294l-31 -144h-294z" />
    <glyph glyph-name="macron" unicode="&#xaf;" 
d="M-23 710h348l-22 -104h-348z" />
    <glyph glyph-name="degree" unicode="&#xb0;" horiz-adv-x="383" 
d="M252 493q25 0 42.5 17.5t17.5 42.5t-17.5 43t-42.5 18q-27 0 -44.5 -18t-17.5 -43t17.5 -42.5t44.5 -17.5zM252 393q-33 0 -62.5 12.5t-51.5 34.5t-34.5 51t-12.5 62t12.5 62.5t34.5 51.5t51.5 34.5t62.5 12.5t62 -12.5t51 -34.5t34.5 -51.5t12.5 -62.5t-12.5 -62
t-34.5 -51t-51 -34.5t-62 -12.5z" />
    <glyph glyph-name="acute" unicode="&#xb4;" 
d="M105 730h179l-178 -174h-118z" />
    <glyph glyph-name="periodcentered" unicode="&#xb7;" horiz-adv-x="288" 
d="M38 183l38 179h179l-38 -179h-179z" />
    <glyph glyph-name="cedilla" unicode="&#xb8;" 
d="M-131 -127q17 -8 33.5 -11t31.5 -3q7 0 17 1.5t18.5 5t14.5 9.5t6 16q0 11 -9 15t-20 4q-12 0 -23.5 -3.5t-20.5 -8.5l-32 19l67 86h67l-38 -49q8 5 22 9.5t30 4.5q30 0 47.5 -16.5t17.5 -42.5q0 -23 -12 -43.5t-33.5 -36t-50.5 -24.5t-63 -9q-23 0 -48.5 3t-48.5 13z
" />
    <glyph glyph-name="guillemotright" unicode="&#xbb;" horiz-adv-x="528" 
d="M299 432l95 54l102 -234l-201 -234l-88 64l139 182zM88 432l95 54l102 -234l-201 -234l-88 64l139 182z" />
    <glyph glyph-name="questiondown" unicode="&#xbf;" horiz-adv-x="558" 
d="M370 255q-7 -31 -21 -55t-32.5 -43t-39 -33.5t-39.5 -25.5q-48 -27 -73 -49.5t-25 -55.5q0 -24 20 -36t49 -12q15 0 33.5 3.5t38 12.5t39 24.5t35.5 38.5l113 -92q-20 -30 -50 -55t-65 -43t-74 -28t-77 -10q-48 0 -87 13.5t-67 38.5t-43.5 59.5t-15.5 76.5q0 43 15 76
t37 58t47 43t46 31q22 14 44.5 28.5t34.5 34.5h157zM214 321l38 179h179l-38 -179h-179z" />
    <glyph glyph-name="Agrave" unicode="&#xc0;" horiz-adv-x="752" 
d="M398 710h144l153 -710h-154l-31 150h-292l-94 -150h-181zM305 288h176l-43 210zM419 768l-94 137h168l41 -137h-115z" />
    <glyph glyph-name="Aacute" unicode="&#xc1;" horiz-adv-x="752" 
d="M398 710h144l153 -710h-154l-31 150h-292l-94 -150h-181zM305 288h176l-43 210zM528 905h172l-153 -137h-118z" />
    <glyph glyph-name="Acircumflex" unicode="&#xc2;" horiz-adv-x="752" 
d="M398 710h144l153 -710h-154l-31 150h-292l-94 -150h-181zM305 288h176l-43 210zM442 905h138l85 -137h-128l-40 50l-62 -50h-136z" />
    <glyph glyph-name="Atilde" unicode="&#xc3;" horiz-adv-x="752" 
d="M398 710h144l153 -710h-154l-31 150h-292l-94 -150h-181zM305 288h176l-43 210zM297 804q6 30 21 52t34 36.5t39.5 21.5t38.5 7q24 0 43 -7.5t36 -16t31.5 -16t29.5 -7.5q20 0 33 12t21 36h83l-6 -28q-7 -30 -22 -52t-33.5 -36.5t-39 -21.5t-38.5 -7q-24 0 -43.5 7.5
t-36 16t-31.5 16t-29 7.5q-21 0 -34 -12t-21 -36h-82z" />
    <glyph glyph-name="Adieresis" unicode="&#xc4;" horiz-adv-x="752" 
d="M398 710h144l153 -710h-154l-31 150h-292l-94 -150h-181zM305 288h176l-43 210zM381 768q-17 0 -31.5 6.5t-25.5 17.5t-17.5 25.5t-6.5 30.5q0 34 23.5 57.5t57.5 23.5q16 0 30.5 -6.5t25 -17.5t17 -25.5t6.5 -31.5q0 -16 -6.5 -30.5t-17 -25.5t-25 -17.5t-30.5 -6.5z
M618 768q-17 0 -31.5 6.5t-25 17.5t-17 25.5t-6.5 30.5q0 34 23.5 57.5t56.5 23.5t56.5 -23.5t23.5 -57.5q0 -16 -6.5 -30.5t-17 -25.5t-25.5 -17.5t-31 -6.5z" />
    <glyph glyph-name="Aring" unicode="&#xc5;" horiz-adv-x="752" 
d="M398 710h144l153 -710h-154l-31 150h-292l-94 -150h-181zM305 288h176l-43 210zM504 753q-25 0 -47 9.5t-38.5 26t-26.5 38t-10 46.5t10 46.5t26.5 38t38.5 26t47 9.5t47 -9.5t38.5 -26t26.5 -38t10 -46.5t-10 -46.5t-26.5 -38t-38.5 -26t-47 -9.5zM504 818q23 0 39.5 16
t16.5 39t-16.5 39t-39.5 16t-39.5 -16t-16.5 -39t16.5 -39t39.5 -16z" />
    <glyph glyph-name="AE" unicode="&#xc6;" horiz-adv-x="999" 
d="M478 150h-255l-125 -150h-183l595 710h537l-32 -152h-291l-27 -127h231l-33 -152h-231l-27 -127h291l-32 -152h-450zM507 288l57 269l-225 -269h168z" />
    <glyph glyph-name="Ccedilla" unicode="&#xc7;" horiz-adv-x="757" 
d="M390 -12q-80 0 -142 26.5t-104.5 72.5t-64.5 107t-22 129q0 78 26 150t77 127.5t126.5 88.5t174.5 33q61 0 111.5 -16t90.5 -43.5t68 -65.5t43 -83l-148 -59q-19 48 -62.5 80.5t-112.5 32.5q-54 0 -97.5 -19t-73.5 -51t-46 -73.5t-16 -87.5q0 -42 11 -77.5t34.5 -61.5
t58 -41t81.5 -15q69 0 116 33.5t76 81.5l140 -76q-20 -41 -52.5 -76t-76 -61t-98 -41t-118.5 -15zM245 -128q29 -13 66 -13q8 0 18 1.5t18.5 5.5t14 10t5.5 15q0 11 -9 15t-19 4q-13 0 -24.5 -3.5t-20.5 -8.5l-32 19l68 86h66l-37 -47q8 5 21.5 8.5t27.5 3.5q29 0 48 -17.5
t19 -43.5q0 -48 -41 -79.5t-118 -31.5q-23 0 -48.5 3t-48.5 13z" />
    <glyph glyph-name="Egrave" unicode="&#xc8;" horiz-adv-x="571" 
d="M169 710h450l-32 -152h-291l-27 -127h231l-33 -152h-231l-27 -127h291l-32 -152h-450zM339 768l-94 137h168l41 -137h-115z" />
    <glyph glyph-name="Eacute" unicode="&#xc9;" horiz-adv-x="571" 
d="M169 710h450l-32 -152h-291l-27 -127h231l-33 -152h-231l-27 -127h291l-32 -152h-450zM448 905h172l-153 -137h-118z" />
    <glyph glyph-name="Ecircumflex" unicode="&#xca;" horiz-adv-x="571" 
d="M169 710h450l-32 -152h-291l-27 -127h231l-33 -152h-231l-27 -127h291l-32 -152h-450zM362 905h138l85 -137h-128l-40 50l-62 -50h-136z" />
    <glyph glyph-name="Edieresis" unicode="&#xcb;" horiz-adv-x="571" 
d="M169 710h450l-32 -152h-291l-27 -127h231l-33 -152h-231l-27 -127h291l-32 -152h-450zM301 768q-17 0 -31.5 6.5t-25.5 17.5t-17.5 25.5t-6.5 30.5q0 34 23.5 57.5t57.5 23.5q16 0 30.5 -6.5t25 -17.5t17 -25.5t6.5 -31.5q0 -16 -6.5 -30.5t-17 -25.5t-25 -17.5
t-30.5 -6.5zM538 768q-17 0 -31.5 6.5t-25 17.5t-17 25.5t-6.5 30.5q0 34 23.5 57.5t56.5 23.5t56.5 -23.5t23.5 -57.5q0 -16 -6.5 -30.5t-17 -25.5t-25.5 -17.5t-31 -6.5z" />
    <glyph glyph-name="Igrave" unicode="&#xcc;" horiz-adv-x="309" 
d="M169 710h159l-151 -710h-159zM197 768l-94 137h168l41 -137h-115z" />
    <glyph glyph-name="Iacute" unicode="&#xcd;" horiz-adv-x="309" 
d="M169 710h159l-151 -710h-159zM306 905h172l-153 -137h-118z" />
    <glyph glyph-name="Icircumflex" unicode="&#xce;" horiz-adv-x="309" 
d="M169 710h159l-151 -710h-159zM220 905h138l85 -137h-128l-40 50l-62 -50h-136z" />
    <glyph glyph-name="Idieresis" unicode="&#xcf;" horiz-adv-x="309" 
d="M169 710h159l-151 -710h-159zM159 768q-17 0 -31.5 6.5t-25.5 17.5t-17.5 25.5t-6.5 30.5q0 34 23.5 57.5t57.5 23.5q16 0 30.5 -6.5t25 -17.5t17 -25.5t6.5 -31.5q0 -16 -6.5 -30.5t-17 -25.5t-25 -17.5t-30.5 -6.5zM396 768q-17 0 -31.5 6.5t-25 17.5t-17 25.5
t-6.5 30.5q0 34 23.5 57.5t56.5 23.5t56.5 -23.5t23.5 -57.5q0 -16 -6.5 -30.5t-17 -25.5t-25.5 -17.5t-31 -6.5z" />
    <glyph glyph-name="Eth" unicode="&#xd0;" horiz-adv-x="741" 
d="M303 146q51 0 97.5 16.5t82 47.5t56 75.5t20.5 99.5q0 39 -13 71.5t-37 56.5t-58.5 37.5t-78.5 13.5h-58l-89 -418h78zM185 710h205q75 0 136 -25t104.5 -66.5t67.5 -96.5t24 -115q0 -104 -32.5 -180.5t-90.5 -127t-137 -75t-172 -24.5h-256zM53 427h351l-29 -138h-351z
" />
    <glyph glyph-name="Ntilde" unicode="&#xd1;" horiz-adv-x="792" 
d="M523 0l-249 457l-97 -457h-159l151 710h137l248 -456l97 456h160l-151 -710h-137zM316 804q6 30 21 52t34 36.5t39.5 21.5t38.5 7q24 0 43 -7.5t36 -16t31.5 -16t29.5 -7.5q20 0 33 12t21 36h83l-6 -28q-7 -30 -22 -52t-33.5 -36.5t-39 -21.5t-38.5 -7q-24 0 -43.5 7.5
t-36 16t-31.5 16t-29 7.5q-21 0 -34 -12t-21 -36h-82z" />
    <glyph glyph-name="Ograve" unicode="&#xd2;" horiz-adv-x="822" 
d="M412 142q48 0 90 18t73 49t48.5 73t17.5 91q0 43 -12.5 78.5t-36.5 61.5t-60.5 40.5t-84.5 14.5t-90 -18t-73 -49t-48.5 -73t-17.5 -91q0 -43 12.5 -78.5t36.5 -61.5t60.5 -40.5t84.5 -14.5zM400 -12q-81 0 -144.5 26t-108 71.5t-67.5 106.5t-23 131q0 81 27 153
t78.5 127t126.5 87t170 32q81 0 144.5 -26t108 -71.5t67.5 -106.5t23 -131q0 -81 -27 -153t-78.5 -127t-126.5 -87t-170 -32zM443 768l-94 137h168l41 -137h-115z" />
    <glyph glyph-name="Oacute" unicode="&#xd3;" horiz-adv-x="822" 
d="M412 142q48 0 90 18t73 49t48.5 73t17.5 91q0 43 -12.5 78.5t-36.5 61.5t-60.5 40.5t-84.5 14.5t-90 -18t-73 -49t-48.5 -73t-17.5 -91q0 -43 12.5 -78.5t36.5 -61.5t60.5 -40.5t84.5 -14.5zM400 -12q-81 0 -144.5 26t-108 71.5t-67.5 106.5t-23 131q0 81 27 153
t78.5 127t126.5 87t170 32q81 0 144.5 -26t108 -71.5t67.5 -106.5t23 -131q0 -81 -27 -153t-78.5 -127t-126.5 -87t-170 -32zM552 905h172l-153 -137h-118z" />
    <glyph glyph-name="Ocircumflex" unicode="&#xd4;" horiz-adv-x="822" 
d="M412 142q48 0 90 18t73 49t48.5 73t17.5 91q0 43 -12.5 78.5t-36.5 61.5t-60.5 40.5t-84.5 14.5t-90 -18t-73 -49t-48.5 -73t-17.5 -91q0 -43 12.5 -78.5t36.5 -61.5t60.5 -40.5t84.5 -14.5zM400 -12q-81 0 -144.5 26t-108 71.5t-67.5 106.5t-23 131q0 81 27 153
t78.5 127t126.5 87t170 32q81 0 144.5 -26t108 -71.5t67.5 -106.5t23 -131q0 -81 -27 -153t-78.5 -127t-126.5 -87t-170 -32zM466 905h138l85 -137h-128l-40 50l-62 -50h-136z" />
    <glyph glyph-name="Otilde" unicode="&#xd5;" horiz-adv-x="822" 
d="M412 142q48 0 90 18t73 49t48.5 73t17.5 91q0 43 -12.5 78.5t-36.5 61.5t-60.5 40.5t-84.5 14.5t-90 -18t-73 -49t-48.5 -73t-17.5 -91q0 -43 12.5 -78.5t36.5 -61.5t60.5 -40.5t84.5 -14.5zM400 -12q-81 0 -144.5 26t-108 71.5t-67.5 106.5t-23 131q0 81 27 153
t78.5 127t126.5 87t170 32q81 0 144.5 -26t108 -71.5t67.5 -106.5t23 -131q0 -81 -27 -153t-78.5 -127t-126.5 -87t-170 -32zM321 804q6 30 21 52t34 36.5t39.5 21.5t38.5 7q24 0 43 -7.5t36 -16t31.5 -16t29.5 -7.5q20 0 33 12t21 36h83l-6 -28q-7 -30 -22 -52t-33.5 -36.5
t-39 -21.5t-38.5 -7q-24 0 -43.5 7.5t-36 16t-31.5 16t-29 7.5q-21 0 -34 -12t-21 -36h-82z" />
    <glyph glyph-name="Odieresis" unicode="&#xd6;" horiz-adv-x="822" 
d="M412 142q48 0 90 18t73 49t48.5 73t17.5 91q0 43 -12.5 78.5t-36.5 61.5t-60.5 40.5t-84.5 14.5t-90 -18t-73 -49t-48.5 -73t-17.5 -91q0 -43 12.5 -78.5t36.5 -61.5t60.5 -40.5t84.5 -14.5zM400 -12q-81 0 -144.5 26t-108 71.5t-67.5 106.5t-23 131q0 81 27 153
t78.5 127t126.5 87t170 32q81 0 144.5 -26t108 -71.5t67.5 -106.5t23 -131q0 -81 -27 -153t-78.5 -127t-126.5 -87t-170 -32zM405 768q-17 0 -31.5 6.5t-25.5 17.5t-17.5 25.5t-6.5 30.5q0 34 23.5 57.5t57.5 23.5q16 0 30.5 -6.5t25 -17.5t17 -25.5t6.5 -31.5
q0 -16 -6.5 -30.5t-17 -25.5t-25 -17.5t-30.5 -6.5zM642 768q-17 0 -31.5 6.5t-25 17.5t-17 25.5t-6.5 30.5q0 34 23.5 57.5t56.5 23.5t56.5 -23.5t23.5 -57.5q0 -16 -6.5 -30.5t-17 -25.5t-25.5 -17.5t-31 -6.5z" />
    <glyph glyph-name="multiply" unicode="&#xd7;" horiz-adv-x="538" 
d="M61 166l123 123l-123 123l92 92l123 -122l123 122l91 -92l-122 -123l122 -123l-91 -92l-123 122l-123 -122z" />
    <glyph glyph-name="Oslash" unicode="&#xd8;" horiz-adv-x="825" 
d="M413 142q48 0 90 18t73 49t48.5 73t17.5 91q0 43 -12.5 78.5t-36.5 61.5t-60.5 40.5t-84.5 14.5t-90 -18t-73 -49t-48.5 -73t-17.5 -91q0 -43 12.5 -78.5t36.5 -61.5t60.5 -40.5t84.5 -14.5zM401 -12q-81 0 -144.5 26t-108 71.5t-67.5 106.5t-23 131q0 81 27 153
t78.5 127t126.5 87t170 32q81 0 144.5 -26t108 -71.5t67.5 -106.5t23 -131q0 -81 -27 -153t-78.5 -127t-126.5 -87t-170 -32zM67 -18l-75 93l802 653l75 -93z" />
    <glyph glyph-name="Ugrave" unicode="&#xd9;" horiz-adv-x="717" 
d="M653 288q-17 -78 -43.5 -135t-65.5 -93.5t-93.5 -54t-126.5 -17.5q-64 0 -116.5 23.5t-87.5 65.5t-48.5 100t1.5 127l86 406h160l-89 -417q-9 -40 -3.5 -68.5t21 -47t39.5 -27t53 -8.5q59 0 97.5 34t53.5 106l91 428h161zM400 768l-94 137h168l41 -137h-115z" />
    <glyph glyph-name="Uacute" unicode="&#xda;" horiz-adv-x="717" 
d="M653 288q-17 -78 -43.5 -135t-65.5 -93.5t-93.5 -54t-126.5 -17.5q-64 0 -116.5 23.5t-87.5 65.5t-48.5 100t1.5 127l86 406h160l-89 -417q-9 -40 -3.5 -68.5t21 -47t39.5 -27t53 -8.5q59 0 97.5 34t53.5 106l91 428h161zM509 905h172l-153 -137h-118z" />
    <glyph glyph-name="Ucircumflex" unicode="&#xdb;" horiz-adv-x="717" 
d="M653 288q-17 -78 -43.5 -135t-65.5 -93.5t-93.5 -54t-126.5 -17.5q-64 0 -116.5 23.5t-87.5 65.5t-48.5 100t1.5 127l86 406h160l-89 -417q-9 -40 -3.5 -68.5t21 -47t39.5 -27t53 -8.5q59 0 97.5 34t53.5 106l91 428h161zM423 905h138l85 -137h-128l-40 50l-62 -50h-136z
" />
    <glyph glyph-name="Udieresis" unicode="&#xdc;" horiz-adv-x="717" 
d="M653 288q-17 -78 -43.5 -135t-65.5 -93.5t-93.5 -54t-126.5 -17.5q-64 0 -116.5 23.5t-87.5 65.5t-48.5 100t1.5 127l86 406h160l-89 -417q-9 -40 -3.5 -68.5t21 -47t39.5 -27t53 -8.5q59 0 97.5 34t53.5 106l91 428h161zM362 768q-17 0 -31.5 6.5t-25.5 17.5t-17.5 25.5
t-6.5 30.5q0 34 23.5 57.5t57.5 23.5q16 0 30.5 -6.5t25 -17.5t17 -25.5t6.5 -31.5q0 -16 -6.5 -30.5t-17 -25.5t-25 -17.5t-30.5 -6.5zM599 768q-17 0 -31.5 6.5t-25 17.5t-17 25.5t-6.5 30.5q0 34 23.5 57.5t56.5 23.5t56.5 -23.5t23.5 -57.5q0 -16 -6.5 -30.5t-17 -25.5
t-25.5 -17.5t-31 -6.5z" />
    <glyph glyph-name="Yacute" unicode="&#xdd;" horiz-adv-x="695" 
d="M274 298l-171 412h165l103 -263l216 263h194l-347 -412l-63 -298h-160zM485 905h172l-153 -137h-118z" />
    <glyph glyph-name="Thorn" unicode="&#xde;" horiz-adv-x="606" 
d="M169 710h159l-24 -112h43q54 0 99 -17.5t77.5 -47t50.5 -69t18 -83.5q0 -53 -17 -101.5t-53 -85.5t-93.5 -59t-138.5 -22h-89l-24 -113h-159zM316 262q24 0 45.5 8t37.5 22t25 32.5t9 40.5q0 16 -5 31t-16 26.5t-28.5 18.5t-43.5 7h-68l-40 -186h84z" />
    <glyph glyph-name="germandbls" unicode="&#xdf;" horiz-adv-x="595" 
d="M125 547q21 99 87 144t164 45q41 0 80 -13.5t69 -38t48 -60t18 -79.5q0 -57 -24.5 -104t-81.5 -78q38 -25 53 -60t15 -73q0 -51 -17.5 -93t-50 -72.5t-78 -47.5t-101.5 -17h-74l29 136h27q48 0 81.5 23.5t33.5 71.5q0 32 -22 55.5t-57 23.5h-26l28 135h13q45 0 72 23
t27 65q0 32 -21.5 49.5t-52.5 17.5q-41 0 -64 -23t-31 -61l-108 -516h-152z" />
    <glyph glyph-name="agrave" unicode="&#xe0;" horiz-adv-x="607" 
d="M277 122q19 0 35 6t29 14.5t22.5 18t15.5 17.5l32 149q-11 19 -33 33t-54 14q-27 0 -52.5 -10.5t-45 -30t-31.5 -46t-12 -59.5q0 -48 24 -77t70 -29zM228 -11q-47 0 -83 18t-61.5 49t-38.5 71.5t-13 85.5q0 65 21 120t58.5 94.5t88 61.5t110.5 22q43 0 78 -15.5t51 -34.5
l8 39h151l-106 -500h-151l7 32q-17 -17 -49.5 -30t-70.5 -13zM341 556l-111 174h168l43 -174h-100z" />
    <glyph glyph-name="aacute" unicode="&#xe1;" horiz-adv-x="607" 
d="M277 122q19 0 35 6t29 14.5t22.5 18t15.5 17.5l32 149q-11 19 -33 33t-54 14q-27 0 -52.5 -10.5t-45 -30t-31.5 -46t-12 -59.5q0 -48 24 -77t70 -29zM228 -11q-47 0 -83 18t-61.5 49t-38.5 71.5t-13 85.5q0 65 21 120t58.5 94.5t88 61.5t110.5 22q43 0 78 -15.5t51 -34.5
l8 39h151l-106 -500h-151l7 32q-17 -17 -49.5 -30t-70.5 -13zM439 730h179l-178 -174h-118z" />
    <glyph glyph-name="acircumflex" unicode="&#xe2;" horiz-adv-x="607" 
d="M277 122q19 0 35 6t29 14.5t22.5 18t15.5 17.5l32 149q-11 19 -33 33t-54 14q-27 0 -52.5 -10.5t-45 -30t-31.5 -46t-12 -59.5q0 -48 24 -77t70 -29zM228 -11q-47 0 -83 18t-61.5 49t-38.5 71.5t-13 85.5q0 65 21 120t58.5 94.5t88 61.5t110.5 22q43 0 78 -15.5t51 -34.5
l8 39h151l-106 -500h-151l7 32q-17 -17 -49.5 -30t-70.5 -13zM357 730h126l95 -152h-122l-48 61l-74 -61h-136z" />
    <glyph glyph-name="atilde" unicode="&#xe3;" horiz-adv-x="607" 
d="M277 122q19 0 35 6t29 14.5t22.5 18t15.5 17.5l32 149q-11 19 -33 33t-54 14q-27 0 -52.5 -10.5t-45 -30t-31.5 -46t-12 -59.5q0 -48 24 -77t70 -29zM228 -11q-47 0 -83 18t-61.5 49t-38.5 71.5t-13 85.5q0 65 21 120t58.5 94.5t88 61.5t110.5 22q43 0 78 -15.5t51 -34.5
l8 39h151l-106 -500h-151l7 32q-17 -17 -49.5 -30t-70.5 -13zM608 711l-8 -28q-17 -59 -52.5 -88t-84.5 -29q-24 0 -42.5 7.5t-33.5 16t-28 16t-26 7.5q-20 0 -32 -12.5t-21 -35.5h-88l8 28q17 59 52.5 88t84.5 29q24 0 42.5 -7.5t33.5 -16t28 -16t26 -7.5q20 0 32 12.5
t21 35.5h88z" />
    <glyph glyph-name="adieresis" unicode="&#xe4;" horiz-adv-x="607" 
d="M277 122q19 0 35 6t29 14.5t22.5 18t15.5 17.5l32 149q-11 19 -33 33t-54 14q-27 0 -52.5 -10.5t-45 -30t-31.5 -46t-12 -59.5q0 -48 24 -77t70 -29zM228 -11q-47 0 -83 18t-61.5 49t-38.5 71.5t-13 85.5q0 65 21 120t58.5 94.5t88 61.5t110.5 22q43 0 78 -15.5t51 -34.5
l8 39h151l-106 -500h-151l7 32q-17 -17 -49.5 -30t-70.5 -13zM283 562q-17 0 -31.5 6.5t-25.5 17t-17.5 25t-6.5 30.5q0 34 23.5 57.5t57.5 23.5q16 0 30.5 -6.5t25 -17.5t17 -25.5t6.5 -31.5q0 -32 -23.5 -55.5t-55.5 -23.5zM520 562q-33 0 -56.5 23.5t-23.5 55.5
q0 34 23.5 57.5t56.5 23.5t56.5 -23.5t23.5 -57.5q0 -32 -23.5 -55.5t-56.5 -23.5z" />
    <glyph glyph-name="aring" unicode="&#xe5;" horiz-adv-x="607" 
d="M277 122q19 0 35 6t29 14.5t22.5 18t15.5 17.5l32 149q-11 19 -33 33t-54 14q-27 0 -52.5 -10.5t-45 -30t-31.5 -46t-12 -59.5q0 -48 24 -77t70 -29zM228 -11q-47 0 -83 18t-61.5 49t-38.5 71.5t-13 85.5q0 65 21 120t58.5 94.5t88 61.5t110.5 22q43 0 78 -15.5t51 -34.5
l8 39h151l-106 -500h-151l7 32q-17 -17 -49.5 -30t-70.5 -13zM406 543q-25 0 -47 9.5t-38.5 26t-26.5 38t-10 46.5t10 46.5t26.5 38t38.5 26t47 9.5t47 -9.5t38.5 -26t26.5 -38t10 -46.5t-10 -46.5t-26.5 -38t-38.5 -26t-47 -9.5zM406 608q23 0 39.5 16t16.5 39t-16.5 39
t-39.5 16t-39.5 -16t-16.5 -39t16.5 -39t39.5 -16z" />
    <glyph glyph-name="ae" unicode="&#xe6;" horiz-adv-x="889" 
d="M199 -8q-38 0 -72.5 9.5t-60.5 28t-42 46t-16 64.5q0 79 58.5 123t161.5 44q36 0 66.5 -8.5t53.5 -21.5l3 18q3 20 -4 34.5t-21.5 24t-34 14t-40.5 4.5q-32 0 -65 -10t-57 -23l-2 145q38 14 72 20.5t76 6.5q55 0 95.5 -18t66.5 -43q36 29 83.5 45.5t106.5 16.5
q57 0 104.5 -21.5t79 -60.5t44 -94t0.5 -121h-372q3 -22 13 -38.5t25.5 -27.5t34.5 -16.5t39 -5.5q42 0 66.5 16.5t44.5 40.5l111 -86q-35 -49 -90.5 -78.5t-141.5 -29.5q-60 0 -105 19t-75 51q-45 -34 -94.5 -51t-111.5 -17zM616 389q-18 0 -37.5 -4.5t-36.5 -14t-31 -23.5
t-21 -33h224q-5 38 -33 56.5t-65 18.5zM223 118q26 0 53.5 9t44.5 26l6 28q-17 11 -41.5 17t-48.5 6q-79 0 -79 -46q0 -22 20 -31t45 -9z" />
    <glyph glyph-name="ccedilla" unicode="&#xe7;" horiz-adv-x="558" 
d="M278 -12q-62 0 -107.5 20t-76.5 53t-46 76t-15 89q0 60 21 112.5t58.5 91t90.5 60.5t116 22q41 0 77.5 -12t66 -33t50.5 -49.5t32 -61.5l-135 -63q-10 34 -36 56t-66 22q-27 0 -49.5 -10.5t-39 -28.5t-25.5 -42t-9 -51q0 -50 26 -80t74 -30q42 0 72 21.5t44 53.5l125 -81
q-36 -62 -95.5 -98.5t-152.5 -36.5zM149 -127q17 -8 33.5 -11t31.5 -3q7 0 17 1.5t18.5 5t14.5 9.5t6 16q0 11 -9 15t-20 4q-12 0 -23.5 -3.5t-20.5 -8.5l-32 19l67 86h67l-38 -49q8 5 22 9.5t30 4.5q30 0 47.5 -16.5t17.5 -42.5q0 -23 -12 -43.5t-33.5 -36t-50.5 -24.5
t-63 -9q-23 0 -48.5 3t-48.5 13z" />
    <glyph glyph-name="egrave" unicode="&#xe8;" horiz-adv-x="581" 
d="M277 -11q-61 0 -106.5 20t-76 53t-45.5 76t-15 89q0 62 19.5 114.5t56 90t89.5 58.5t120 21q57 0 104.5 -21.5t79 -60.5t44 -94t0.5 -121h-372q3 -22 13 -38.5t25.5 -27.5t34.5 -16.5t39 -5.5q42 0 66.5 16.5t44.5 40.5l111 -86q-35 -49 -90.5 -78.5t-141.5 -29.5z
M308 388q-18 0 -37.5 -4.5t-36.5 -14t-31 -23.5t-21 -33h224q-5 38 -33 56.5t-65 18.5zM295 556l-111 174h168l43 -174h-100z" />
    <glyph glyph-name="eacute" unicode="&#xe9;" horiz-adv-x="581" 
d="M277 -11q-61 0 -106.5 20t-76 53t-45.5 76t-15 89q0 62 19.5 114.5t56 90t89.5 58.5t120 21q57 0 104.5 -21.5t79 -60.5t44 -94t0.5 -121h-372q3 -22 13 -38.5t25.5 -27.5t34.5 -16.5t39 -5.5q42 0 66.5 16.5t44.5 40.5l111 -86q-35 -49 -90.5 -78.5t-141.5 -29.5z
M308 388q-18 0 -37.5 -4.5t-36.5 -14t-31 -23.5t-21 -33h224q-5 38 -33 56.5t-65 18.5zM393 730h179l-178 -174h-118z" />
    <glyph glyph-name="ecircumflex" unicode="&#xea;" horiz-adv-x="581" 
d="M277 -11q-61 0 -106.5 20t-76 53t-45.5 76t-15 89q0 62 19.5 114.5t56 90t89.5 58.5t120 21q57 0 104.5 -21.5t79 -60.5t44 -94t0.5 -121h-372q3 -22 13 -38.5t25.5 -27.5t34.5 -16.5t39 -5.5q42 0 66.5 16.5t44.5 40.5l111 -86q-35 -49 -90.5 -78.5t-141.5 -29.5z
M308 388q-18 0 -37.5 -4.5t-36.5 -14t-31 -23.5t-21 -33h224q-5 38 -33 56.5t-65 18.5zM311 730h126l95 -152h-122l-48 61l-74 -61h-136z" />
    <glyph glyph-name="edieresis" unicode="&#xeb;" horiz-adv-x="581" 
d="M277 -11q-61 0 -106.5 20t-76 53t-45.5 76t-15 89q0 62 19.5 114.5t56 90t89.5 58.5t120 21q57 0 104.5 -21.5t79 -60.5t44 -94t0.5 -121h-372q3 -22 13 -38.5t25.5 -27.5t34.5 -16.5t39 -5.5q42 0 66.5 16.5t44.5 40.5l111 -86q-35 -49 -90.5 -78.5t-141.5 -29.5z
M308 388q-18 0 -37.5 -4.5t-36.5 -14t-31 -23.5t-21 -33h224q-5 38 -33 56.5t-65 18.5zM237 562q-17 0 -31.5 6.5t-25.5 17t-17.5 25t-6.5 30.5q0 34 23.5 57.5t57.5 23.5q16 0 30.5 -6.5t25 -17.5t17 -25.5t6.5 -31.5q0 -32 -23.5 -55.5t-55.5 -23.5zM474 562
q-33 0 -56.5 23.5t-23.5 55.5q0 34 23.5 57.5t56.5 23.5t56.5 -23.5t23.5 -57.5q0 -32 -23.5 -55.5t-56.5 -23.5z" />
    <glyph glyph-name="igrave" unicode="&#xec;" horiz-adv-x="275" 
d="M115 500h151l-106 -500h-151zM160 556l-111 174h168l43 -174h-100z" />
    <glyph glyph-name="iacute" unicode="&#xed;" horiz-adv-x="275" 
d="M115 500h151l-106 -500h-151zM258 730h179l-178 -174h-118z" />
    <glyph glyph-name="icircumflex" unicode="&#xee;" horiz-adv-x="275" 
d="M115 500h151l-106 -500h-151zM176 730h126l95 -152h-122l-48 61l-74 -61h-136z" />
    <glyph glyph-name="idieresis" unicode="&#xef;" horiz-adv-x="275" 
d="M115 500h151l-106 -500h-151zM128 572q-33 0 -56.5 23.5t-23.5 55.5q0 33 23.5 56.5t56.5 23.5q32 0 55.5 -23.5t23.5 -56.5q0 -32 -23.5 -55.5t-55.5 -23.5zM315 572q-32 0 -55.5 23.5t-23.5 55.5q0 33 23.5 56.5t55.5 23.5q33 0 56.5 -23.5t23.5 -56.5
q0 -32 -23.5 -55.5t-56.5 -23.5z" />
    <glyph glyph-name="eth" unicode="&#xf0;" horiz-adv-x="594" 
d="M532 399q12 -28 20 -61t8 -65q0 -60 -20.5 -112.5t-58 -90.5t-90.5 -60t-117 -22q-60 0 -105 20t-75 53t-45 76t-15 89q0 60 20.5 112.5t58 90.5t90.5 60t117 22h4l-22 49h-146l21 96h83l-33 74h158l33 -74h111l-21 -96h-48zM287 129q26 0 48.5 10t38.5 28t25 42t9 51
q0 50 -26.5 80t-74.5 30q-26 0 -48.5 -10t-38.5 -28t-25 -42t-9 -51q0 -50 26.5 -80t74.5 -30z" />
    <glyph glyph-name="ntilde" unicode="&#xf1;" horiz-adv-x="600" 
d="M115 500h151l-7 -36q26 23 57.5 35t74.5 12q47 0 81.5 -20.5t55 -53.5t27 -75t-2.5 -85l-59 -277h-151l56 265q4 22 3.5 41.5t-8 34.5t-23 24t-41.5 9q-24 0 -51 -11.5t-48 -34.5l-70 -328h-151zM593 711l-8 -28q-17 -59 -52.5 -88t-84.5 -29q-24 0 -42.5 7.5t-33.5 16
t-28 16t-26 7.5q-20 0 -32 -12.5t-21 -35.5h-88l8 28q17 59 52.5 88t84.5 29q24 0 42.5 -7.5t33.5 -16t28 -16t26 -7.5q20 0 32 12.5t21 35.5h88z" />
    <glyph glyph-name="ograve" unicode="&#xf2;" horiz-adv-x="592" 
d="M286 129q26 0 48.5 10t38.5 28t25 42t9 51q0 50 -26.5 80t-74.5 30q-26 0 -48.5 -10t-38.5 -28t-25 -42t-9 -51q0 -50 26.5 -80t74.5 -30zM273 -12q-60 0 -105 20t-75 53t-45 76t-15 89q0 60 20.5 112.5t58 90.5t90.5 60t117 22q60 0 105 -20t75 -53t45 -76t15 -89
q0 -60 -20.5 -112.5t-58 -90.5t-90.5 -60t-117 -22zM319 556l-111 174h168l43 -174h-100z" />
    <glyph glyph-name="oacute" unicode="&#xf3;" horiz-adv-x="592" 
d="M286 129q26 0 48.5 10t38.5 28t25 42t9 51q0 50 -26.5 80t-74.5 30q-26 0 -48.5 -10t-38.5 -28t-25 -42t-9 -51q0 -50 26.5 -80t74.5 -30zM273 -12q-60 0 -105 20t-75 53t-45 76t-15 89q0 60 20.5 112.5t58 90.5t90.5 60t117 22q60 0 105 -20t75 -53t45 -76t15 -89
q0 -60 -20.5 -112.5t-58 -90.5t-90.5 -60t-117 -22zM417 730h179l-178 -174h-118z" />
    <glyph glyph-name="ocircumflex" unicode="&#xf4;" horiz-adv-x="592" 
d="M286 129q26 0 48.5 10t38.5 28t25 42t9 51q0 50 -26.5 80t-74.5 30q-26 0 -48.5 -10t-38.5 -28t-25 -42t-9 -51q0 -50 26.5 -80t74.5 -30zM273 -12q-60 0 -105 20t-75 53t-45 76t-15 89q0 60 20.5 112.5t58 90.5t90.5 60t117 22q60 0 105 -20t75 -53t45 -76t15 -89
q0 -60 -20.5 -112.5t-58 -90.5t-90.5 -60t-117 -22zM335 730h126l95 -152h-122l-48 61l-74 -61h-136z" />
    <glyph glyph-name="otilde" unicode="&#xf5;" horiz-adv-x="592" 
d="M286 129q26 0 48.5 10t38.5 28t25 42t9 51q0 50 -26.5 80t-74.5 30q-26 0 -48.5 -10t-38.5 -28t-25 -42t-9 -51q0 -50 26.5 -80t74.5 -30zM273 -12q-60 0 -105 20t-75 53t-45 76t-15 89q0 60 20.5 112.5t58 90.5t90.5 60t117 22q60 0 105 -20t75 -53t45 -76t15 -89
q0 -60 -20.5 -112.5t-58 -90.5t-90.5 -60t-117 -22zM586 711l-8 -28q-17 -59 -52.5 -88t-84.5 -29q-24 0 -42.5 7.5t-33.5 16t-28 16t-26 7.5q-20 0 -32 -12.5t-21 -35.5h-88l8 28q17 59 52.5 88t84.5 29q24 0 42.5 -7.5t33.5 -16t28 -16t26 -7.5q20 0 32 12.5t21 35.5h88z
" />
    <glyph glyph-name="odieresis" unicode="&#xf6;" horiz-adv-x="592" 
d="M286 129q26 0 48.5 10t38.5 28t25 42t9 51q0 50 -26.5 80t-74.5 30q-26 0 -48.5 -10t-38.5 -28t-25 -42t-9 -51q0 -50 26.5 -80t74.5 -30zM273 -12q-60 0 -105 20t-75 53t-45 76t-15 89q0 60 20.5 112.5t58 90.5t90.5 60t117 22q60 0 105 -20t75 -53t45 -76t15 -89
q0 -60 -20.5 -112.5t-58 -90.5t-90.5 -60t-117 -22zM261 562q-17 0 -31.5 6.5t-25.5 17t-17.5 25t-6.5 30.5q0 34 23.5 57.5t57.5 23.5q16 0 30.5 -6.5t25 -17.5t17 -25.5t6.5 -31.5q0 -32 -23.5 -55.5t-55.5 -23.5zM498 562q-33 0 -56.5 23.5t-23.5 55.5q0 34 23.5 57.5
t56.5 23.5t56.5 -23.5t23.5 -57.5q0 -32 -23.5 -55.5t-56.5 -23.5z" />
    <glyph glyph-name="oslash" unicode="&#xf8;" horiz-adv-x="594" 
d="M287 129q26 0 48.5 10t38.5 28t25 42t9 51q0 50 -26.5 80t-74.5 30q-26 0 -48.5 -10t-38.5 -28t-25 -42t-9 -51q0 -50 26.5 -80t74.5 -30zM274 -12q-60 0 -105 20t-75 53t-45 76t-15 89q0 60 20.5 112.5t58 90.5t90.5 60t117 22q60 0 105 -20t75 -53t45 -76t15 -89
q0 -60 -20.5 -112.5t-58 -90.5t-90.5 -60t-117 -22zM28 -11l-43 52l582 470l43 -52z" />
    <glyph glyph-name="ugrave" unicode="&#xf9;" horiz-adv-x="588" 
d="M201 -8q-37 0 -70 17t-54.5 49t-29.5 78t4 105l55 259h151l-55 -259q-11 -54 4 -82.5t59 -28.5q26 0 51.5 13t45.5 45l66 312h151l-106 -500h-149l7 40q-26 -23 -58 -35.5t-72 -12.5zM312 556l-111 174h168l43 -174h-100z" />
    <glyph glyph-name="uacute" unicode="&#xfa;" horiz-adv-x="588" 
d="M201 -8q-37 0 -70 17t-54.5 49t-29.5 78t4 105l55 259h151l-55 -259q-11 -54 4 -82.5t59 -28.5q26 0 51.5 13t45.5 45l66 312h151l-106 -500h-149l7 40q-26 -23 -58 -35.5t-72 -12.5zM410 730h179l-178 -174h-118z" />
    <glyph glyph-name="ucircumflex" unicode="&#xfb;" horiz-adv-x="588" 
d="M201 -8q-37 0 -70 17t-54.5 49t-29.5 78t4 105l55 259h151l-55 -259q-11 -54 4 -82.5t59 -28.5q26 0 51.5 13t45.5 45l66 312h151l-106 -500h-149l7 40q-26 -23 -58 -35.5t-72 -12.5zM328 730h126l95 -152h-122l-48 61l-74 -61h-136z" />
    <glyph glyph-name="udieresis" unicode="&#xfc;" horiz-adv-x="588" 
d="M201 -8q-37 0 -70 17t-54.5 49t-29.5 78t4 105l55 259h151l-55 -259q-11 -54 4 -82.5t59 -28.5q26 0 51.5 13t45.5 45l66 312h151l-106 -500h-149l7 40q-26 -23 -58 -35.5t-72 -12.5zM254 562q-17 0 -31.5 6.5t-25.5 17t-17.5 25t-6.5 30.5q0 34 23.5 57.5t57.5 23.5
q16 0 30.5 -6.5t25 -17.5t17 -25.5t6.5 -31.5q0 -32 -23.5 -55.5t-55.5 -23.5zM491 562q-33 0 -56.5 23.5t-23.5 55.5q0 34 23.5 57.5t56.5 23.5t56.5 -23.5t23.5 -57.5q0 -32 -23.5 -55.5t-56.5 -23.5z" />
    <glyph glyph-name="yacute" unicode="&#xfd;" horiz-adv-x="574" 
d="M159 31l-107 469h149l62 -315l196 315h171l-452 -694h-166zM398 730h179l-178 -174h-118z" />
    <glyph glyph-name="thorn" unicode="&#xfe;" horiz-adv-x="608" 
d="M331 378q-20 0 -35.5 -6t-28.5 -14.5t-22.5 -18t-15.5 -17.5l-32 -149q11 -19 33 -33t54 -14q27 0 52.5 10.5t45 30t31.5 46t12 59.5q0 48 -24 77t-70 29zM380 511q46 0 82.5 -18t62 -49t38.5 -71.5t13 -85.5q0 -65 -21 -120t-58.5 -94.5t-88 -61.5t-110.5 -22
q-43 0 -78 15.5t-51 34.5l-49 -233h-151l194 924h151l-54 -262q17 17 49.5 30t70.5 13z" />
    <glyph glyph-name="ydieresis" unicode="&#xff;" horiz-adv-x="574" 
d="M159 31l-107 469h149l62 -315l196 315h171l-452 -694h-166zM242 562q-17 0 -31.5 6.5t-25.5 17t-17.5 25t-6.5 30.5q0 34 23.5 57.5t57.5 23.5q16 0 30.5 -6.5t25 -17.5t17 -25.5t6.5 -31.5q0 -32 -23.5 -55.5t-55.5 -23.5zM479 562q-33 0 -56.5 23.5t-23.5 55.5
q0 34 23.5 57.5t56.5 23.5t56.5 -23.5t23.5 -57.5q0 -32 -23.5 -55.5t-56.5 -23.5z" />
    <glyph glyph-name="Abreve" unicode="&#x102;" horiz-adv-x="752" 
d="M398 710h144l153 -710h-154l-31 150h-292l-94 -150h-181zM305 288h176l-43 210zM498 747q-37 0 -69.5 12.5t-55.5 36t-33.5 57t-1.5 74.5h83q-8 -50 15.5 -72.5t65.5 -22.5t69 24t37 71h86q-11 -85 -63.5 -132.5t-132.5 -47.5z" />
    <glyph glyph-name="Amacron" unicode="&#x100;" horiz-adv-x="752" 
d="M398 710h144l153 -710h-154l-31 150h-292l-94 -150h-181zM305 288h176l-43 210zM335 891h348l-22 -104h-348z" />
    <glyph glyph-name="Aogonek" unicode="&#x104;" horiz-adv-x="752" 
d="M398 710h144l153 -710q-50 -20 -72.5 -38.5t-22.5 -35.5q0 -11 6.5 -16t16.5 -5q11 0 26 6l27 -91q-19 -11 -47.5 -17.5t-57.5 -6.5q-49 0 -82.5 22t-33.5 68q0 32 20.5 61.5t65.5 52.5l-31 150h-292l-94 -150h-181zM305 288h176l-43 210z" />
    <glyph glyph-name="Cacute" unicode="&#x106;" horiz-adv-x="757" 
d="M390 -12q-80 0 -142 26.5t-104.5 72.5t-64.5 107t-22 129q0 78 26 150t77 127.5t126.5 88.5t174.5 33q61 0 111.5 -16t90.5 -43.5t68 -65.5t43 -83l-148 -59q-19 48 -62.5 80.5t-112.5 32.5q-54 0 -97.5 -19t-73.5 -51t-46 -73.5t-16 -87.5q0 -42 11 -77.5t34.5 -61.5
t58 -41t81.5 -15q69 0 116 33.5t76 81.5l140 -76q-20 -41 -52.5 -76t-76 -61t-98 -41t-118.5 -15zM536 905h172l-153 -137h-118z" />
    <glyph glyph-name="Ccaron" unicode="&#x10c;" horiz-adv-x="757" 
d="M390 -12q-80 0 -142 26.5t-104.5 72.5t-64.5 107t-22 129q0 78 26 150t77 127.5t126.5 88.5t174.5 33q61 0 111.5 -16t90.5 -43.5t68 -65.5t43 -83l-148 -59q-19 48 -62.5 80.5t-112.5 32.5q-54 0 -97.5 -19t-73.5 -51t-46 -73.5t-16 -87.5q0 -42 11 -77.5t34.5 -61.5
t58 -41t81.5 -15q69 0 116 33.5t76 81.5l140 -76q-20 -41 -52.5 -76t-76 -61t-98 -41t-118.5 -15zM559 768h-138l-85 137h128l40 -50l62 50h136z" />
    <glyph glyph-name="Ccircumflex" unicode="&#x108;" horiz-adv-x="757" 
d="M390 -12q-80 0 -142 26.5t-104.5 72.5t-64.5 107t-22 129q0 78 26 150t77 127.5t126.5 88.5t174.5 33q61 0 111.5 -16t90.5 -43.5t68 -65.5t43 -83l-148 -59q-19 48 -62.5 80.5t-112.5 32.5q-54 0 -97.5 -19t-73.5 -51t-46 -73.5t-16 -87.5q0 -42 11 -77.5t34.5 -61.5
t58 -41t81.5 -15q69 0 116 33.5t76 81.5l140 -76q-20 -41 -52.5 -76t-76 -61t-98 -41t-118.5 -15zM450 905h138l85 -137h-128l-40 50l-62 -50h-136z" />
    <glyph glyph-name="Cdotaccent" unicode="&#x10a;" horiz-adv-x="757" 
d="M390 -12q-80 0 -142 26.5t-104.5 72.5t-64.5 107t-22 129q0 78 26 150t77 127.5t126.5 88.5t174.5 33q61 0 111.5 -16t90.5 -43.5t68 -65.5t43 -83l-148 -59q-19 48 -62.5 80.5t-112.5 32.5q-54 0 -97.5 -19t-73.5 -51t-46 -73.5t-16 -87.5q0 -42 11 -77.5t34.5 -61.5
t58 -41t81.5 -15q69 0 116 33.5t76 81.5l140 -76q-20 -41 -52.5 -76t-76 -61t-98 -41t-118.5 -15zM508 768q-17 0 -31.5 6.5t-25.5 17.5t-17.5 25.5t-6.5 30.5q0 34 23.5 57.5t57.5 23.5q33 0 56.5 -23.5t23.5 -57.5q0 -16 -6.5 -30.5t-17 -25.5t-25.5 -17.5t-31 -6.5z" />
    <glyph glyph-name="Dcaron" unicode="&#x10e;" horiz-adv-x="725" 
d="M287 146q51 0 97.5 16.5t82 47.5t56 75.5t20.5 99.5q0 39 -13 71.5t-37 56.5t-58.5 37.5t-78.5 13.5h-58l-89 -418h78zM169 710h205q75 0 136 -25t104.5 -66.5t67.5 -96.5t24 -115q0 -104 -32.5 -180.5t-90.5 -127t-137 -75t-172 -24.5h-256zM497 768h-138l-85 137h128
l40 -50l62 50h136z" />
    <glyph glyph-name="Dcroat" unicode="&#x110;" horiz-adv-x="741" 
d="M303 146q51 0 97.5 16.5t82 47.5t56 75.5t20.5 99.5q0 39 -13 71.5t-37 56.5t-58.5 37.5t-78.5 13.5h-58l-89 -418h78zM185 710h205q75 0 136 -25t104.5 -66.5t67.5 -96.5t24 -115q0 -104 -32.5 -180.5t-90.5 -127t-137 -75t-172 -24.5h-256zM53 427h351l-29 -138h-351z
" />
    <glyph glyph-name="Ebreve" unicode="&#x114;" horiz-adv-x="571" 
d="M169 710h450l-32 -152h-291l-27 -127h231l-33 -152h-231l-27 -127h291l-32 -152h-450zM418 747q-37 0 -69.5 12.5t-55.5 36t-33.5 57t-1.5 74.5h83q-8 -50 15.5 -72.5t65.5 -22.5t69 24t37 71h86q-11 -85 -63.5 -132.5t-132.5 -47.5z" />
    <glyph glyph-name="Ecaron" unicode="&#x11a;" horiz-adv-x="571" 
d="M169 710h450l-32 -152h-291l-27 -127h231l-33 -152h-231l-27 -127h291l-32 -152h-450zM471 768h-138l-85 137h128l40 -50l62 50h136z" />
    <glyph glyph-name="Emacron" unicode="&#x112;" horiz-adv-x="571" 
d="M169 710h450l-32 -152h-291l-27 -127h231l-33 -152h-231l-27 -127h291l-32 -152h-450zM255 891h348l-22 -104h-348z" />
    <glyph glyph-name="Eogonek" unicode="&#x118;" horiz-adv-x="571" 
d="M169 710h450l-32 -152h-291l-27 -127h231l-33 -152h-231l-27 -127h291l-32 -152h-450zM344 -204q-49 0 -82.5 22t-33.5 68q0 32 21.5 59t59.5 55h159q-50 -20 -72.5 -38.5t-22.5 -35.5q0 -11 6.5 -16t16.5 -5q11 0 26 6l27 -91q-19 -11 -47.5 -17.5t-57.5 -6.5z" />
    <glyph glyph-name="Edotaccent" unicode="&#x116;" horiz-adv-x="571" 
d="M169 710h450l-32 -152h-291l-27 -127h231l-33 -152h-231l-27 -127h291l-32 -152h-450zM420 768q-17 0 -31.5 6.5t-25.5 17.5t-17.5 25.5t-6.5 30.5q0 34 23.5 57.5t57.5 23.5q33 0 56.5 -23.5t23.5 -57.5q0 -16 -6.5 -30.5t-17 -25.5t-25.5 -17.5t-31 -6.5z" />
    <glyph glyph-name="Gbreve" unicode="&#x11e;" horiz-adv-x="759" 
d="M386 -12q-81 0 -142.5 28.5t-102.5 75.5t-61.5 107.5t-21.5 125.5q-1 75 24.5 146.5t76 127t125.5 89.5t173 34q101 0 171 -36t108 -95l-126 -99q-24 32 -64 54t-100 22q-53 0 -95 -19t-71 -50.5t-45 -73t-16 -86.5q0 -42 10.5 -78t33.5 -62.5t60 -41.5t90 -15
q31 0 63.5 7.5t59.5 24.5l24 107h-146l32 149h301l-75 -348q-48 -47 -118.5 -70.5t-167.5 -23.5zM493 747q-37 0 -69.5 12.5t-55.5 36t-33.5 57t-1.5 74.5h83q-8 -50 15.5 -72.5t65.5 -22.5t69 24t37 71h86q-11 -85 -63.5 -132.5t-132.5 -47.5z" />
    <glyph glyph-name="Gcircumflex" unicode="&#x11c;" horiz-adv-x="759" 
d="M386 -12q-81 0 -142.5 28.5t-102.5 75.5t-61.5 107.5t-21.5 125.5q-1 75 24.5 146.5t76 127t125.5 89.5t173 34q101 0 171 -36t108 -95l-126 -99q-24 32 -64 54t-100 22q-53 0 -95 -19t-71 -50.5t-45 -73t-16 -86.5q0 -42 10.5 -78t33.5 -62.5t60 -41.5t90 -15
q31 0 63.5 7.5t59.5 24.5l24 107h-146l32 149h301l-75 -348q-48 -47 -118.5 -70.5t-167.5 -23.5zM437 905h138l85 -137h-128l-40 50l-62 -50h-136z" />
    <glyph glyph-name="uni0122" unicode="&#x122;" horiz-adv-x="759" 
d="M386 -12q-81 0 -142.5 28.5t-102.5 75.5t-61.5 107.5t-21.5 125.5q-1 75 24.5 146.5t76 127t125.5 89.5t173 34q101 0 171 -36t108 -95l-126 -99q-24 32 -64 54t-100 22q-53 0 -95 -19t-71 -50.5t-45 -73t-16 -86.5q0 -42 10.5 -78t33.5 -62.5t60 -41.5t90 -15
q31 0 63.5 7.5t59.5 24.5l24 107h-146l32 149h301l-75 -348q-48 -47 -118.5 -70.5t-167.5 -23.5zM265 -335l59 117h-57l29 139h141l-29 -139l-75 -117h-68z" />
    <glyph glyph-name="Gdotaccent" unicode="&#x120;" horiz-adv-x="759" 
d="M386 -12q-81 0 -142.5 28.5t-102.5 75.5t-61.5 107.5t-21.5 125.5q-1 75 24.5 146.5t76 127t125.5 89.5t173 34q101 0 171 -36t108 -95l-126 -99q-24 32 -64 54t-100 22q-53 0 -95 -19t-71 -50.5t-45 -73t-16 -86.5q0 -42 10.5 -78t33.5 -62.5t60 -41.5t90 -15
q31 0 63.5 7.5t59.5 24.5l24 107h-146l32 149h301l-75 -348q-48 -47 -118.5 -70.5t-167.5 -23.5zM495 768q-17 0 -31.5 6.5t-25.5 17.5t-17.5 25.5t-6.5 30.5q0 34 23.5 57.5t57.5 23.5q33 0 56.5 -23.5t23.5 -57.5q0 -16 -6.5 -30.5t-17 -25.5t-25.5 -17.5t-31 -6.5z" />
    <glyph glyph-name="Hbar" unicode="&#x126;" horiz-adv-x="787" 
d="M186 710h159l-59 -278h286l59 278h159l-151 -710h-159l60 281h-286l-60 -281h-159zM96 626h748l-23 -108h-748z" />
    <glyph glyph-name="Hcircumflex" unicode="&#x124;" horiz-adv-x="754" 
d="M169 710h159l-59 -278h286l59 278h159l-151 -710h-159l60 281h-286l-60 -281h-159zM442 905h138l85 -137h-128l-40 50l-62 -50h-136z" />
    <glyph glyph-name="Ibreve" unicode="&#x12c;" horiz-adv-x="309" 
d="M169 710h159l-151 -710h-159zM276 747q-37 0 -69.5 12.5t-55.5 36t-33.5 57t-1.5 74.5h83q-8 -50 15.5 -72.5t65.5 -22.5t69 24t37 71h86q-11 -85 -63.5 -132.5t-132.5 -47.5z" />
    <glyph glyph-name="Idotaccent" unicode="&#x130;" horiz-adv-x="309" 
d="M169 710h159l-151 -710h-159zM278 768q-17 0 -31.5 6.5t-25.5 17.5t-17.5 25.5t-6.5 30.5q0 34 23.5 57.5t57.5 23.5q33 0 56.5 -23.5t23.5 -57.5q0 -16 -6.5 -30.5t-17 -25.5t-25.5 -17.5t-31 -6.5z" />
    <glyph glyph-name="Imacron" unicode="&#x12a;" horiz-adv-x="309" 
d="M169 710h159l-151 -710h-159zM113 891h348l-22 -104h-348z" />
    <glyph glyph-name="Iogonek" unicode="&#x12e;" horiz-adv-x="309" 
d="M169 710h159l-151 -710h-159zM53 -204q-49 0 -82.5 22t-33.5 68q0 32 21.5 59t59.5 55h159q-50 -20 -72.5 -38.5t-22.5 -35.5q0 -11 6.5 -16t16.5 -5q11 0 26 6l27 -91q-19 -11 -47.5 -17.5t-57.5 -6.5z" />
    <glyph glyph-name="Itilde" unicode="&#x128;" horiz-adv-x="309" 
d="M169 710h159l-151 -710h-159zM75 804q6 30 21 52t34 36.5t39.5 21.5t38.5 7q24 0 43 -7.5t36 -16t31.5 -16t29.5 -7.5q20 0 33 12t21 36h83l-6 -28q-7 -30 -22 -52t-33.5 -36.5t-39 -21.5t-38.5 -7q-24 0 -43.5 7.5t-36 16t-31.5 16t-29 7.5q-21 0 -34 -12t-21 -36h-82z
" />
    <glyph glyph-name="uni1ECA" unicode="&#x1eca;" horiz-adv-x="309" 
d="M169 710h159l-151 -710h-159zM68 -227q-34 0 -57.5 23.5t-23.5 56.5t23.5 56.5t57.5 23.5q33 0 56.5 -23.5t23.5 -56.5t-23.5 -56.5t-56.5 -23.5z" />
    <glyph glyph-name="Jcircumflex" unicode="&#x134;" horiz-adv-x="471" 
d="M157 -12q-38 0 -70 9.5t-58 24t-44 31.5t-27 32l110 97q14 -20 35.5 -33t47.5 -13q29 0 49 16.5t28 51.5l107 506h159l-109 -516q-23 -109 -79 -157.5t-149 -48.5zM386 905h138l85 -137h-128l-40 50l-62 -50h-136z" />
    <glyph glyph-name="uni0136" unicode="&#x136;" horiz-adv-x="696" 
d="M244 320l-68 -320h-158l151 710h158l-65 -303l303 303h198l-357 -357l263 -353h-186zM211 -335l59 117h-57l29 139h141l-29 -139l-75 -117h-68z" />
    <glyph glyph-name="Lacute" unicode="&#x139;" horiz-adv-x="543" 
d="M169 710h159l-119 -558h294l-32 -152h-453zM309 905h172l-153 -137h-118z" />
    <glyph glyph-name="Lcaron" unicode="&#x13d;" horiz-adv-x="545" 
d="M169 710h159l-119 -558h294l-32 -152h-453zM412 722h151l-103 -160h-102z" />
    <glyph glyph-name="uni013B" unicode="&#x13b;" horiz-adv-x="543" 
d="M169 710h159l-119 -558h294l-32 -152h-453zM127 -335l59 117h-57l29 139h141l-29 -139l-75 -117h-68z" />
    <glyph glyph-name="Ldot" unicode="&#x13f;" horiz-adv-x="550" 
d="M169 710h159l-119 -558h294l-32 -152h-453zM459 351q-34 0 -57.5 23.5t-23.5 56.5q0 34 23.5 57.5t57.5 23.5q33 0 56.5 -23.5t23.5 -57.5q0 -33 -23.5 -56.5t-56.5 -23.5z" />
    <glyph glyph-name="Lslash" unicode="&#x141;" horiz-adv-x="573" 
d="M199 710h159l-119 -558h294l-32 -152h-453zM22 213l27 129l403 201l-27 -129z" />
    <glyph glyph-name="Nacute" unicode="&#x143;" horiz-adv-x="792" 
d="M523 0l-249 457l-97 -457h-159l151 710h137l248 -456l97 456h160l-151 -710h-137zM547 905h172l-153 -137h-118z" />
    <glyph glyph-name="Ncaron" unicode="&#x147;" horiz-adv-x="792" 
d="M523 0l-249 457l-97 -457h-159l151 710h137l248 -456l97 456h160l-151 -710h-137zM570 768h-138l-85 137h128l40 -50l62 50h136z" />
    <glyph glyph-name="uni0145" unicode="&#x145;" horiz-adv-x="792" 
d="M523 0l-249 457l-97 -457h-159l151 710h137l248 -456l97 456h160l-151 -710h-137zM221 -335l59 117h-57l29 139h141l-29 -139l-75 -117h-68z" />
    <glyph glyph-name="OE" unicode="&#x152;" horiz-adv-x="1104" 
d="M556 26q-36 -17 -78 -27.5t-91 -10.5q-75 0 -135.5 26t-104 71.5t-67 106.5t-23.5 131q0 81 27 153t78.5 127t126.5 87t170 32q75 0 132 -24t95 -63l16 75h450l-32 -152h-291l-27 -127h231l-33 -152h-231l-27 -127h291l-32 -152h-450zM412 142q48 0 90 18t73 49t48.5 73
t17.5 91q0 43 -12.5 78.5t-36.5 61.5t-60.5 40.5t-84.5 14.5t-90 -18t-73 -49t-48.5 -73t-17.5 -91q0 -43 12.5 -78.5t36.5 -61.5t60.5 -40.5t84.5 -14.5z" />
    <glyph glyph-name="Obreve" unicode="&#x14e;" horiz-adv-x="822" 
d="M412 142q48 0 90 18t73 49t48.5 73t17.5 91q0 43 -12.5 78.5t-36.5 61.5t-60.5 40.5t-84.5 14.5t-90 -18t-73 -49t-48.5 -73t-17.5 -91q0 -43 12.5 -78.5t36.5 -61.5t60.5 -40.5t84.5 -14.5zM400 -12q-81 0 -144.5 26t-108 71.5t-67.5 106.5t-23 131q0 81 27 153
t78.5 127t126.5 87t170 32q81 0 144.5 -26t108 -71.5t67.5 -106.5t23 -131q0 -81 -27 -153t-78.5 -127t-126.5 -87t-170 -32zM522 747q-37 0 -69.5 12.5t-55.5 36t-33.5 57t-1.5 74.5h83q-8 -50 15.5 -72.5t65.5 -22.5t69 24t37 71h86q-11 -85 -63.5 -132.5t-132.5 -47.5z
" />
    <glyph glyph-name="Ohungarumlaut" unicode="&#x150;" horiz-adv-x="822" 
d="M412 142q48 0 90 18t73 49t48.5 73t17.5 91q0 43 -12.5 78.5t-36.5 61.5t-60.5 40.5t-84.5 14.5t-90 -18t-73 -49t-48.5 -73t-17.5 -91q0 -43 12.5 -78.5t36.5 -61.5t60.5 -40.5t84.5 -14.5zM400 -12q-81 0 -144.5 26t-108 71.5t-67.5 106.5t-23 131q0 81 27 153
t78.5 127t126.5 87t170 32q81 0 144.5 -26t108 -71.5t67.5 -106.5t23 -131q0 -81 -27 -153t-78.5 -127t-126.5 -87t-170 -32zM433 905h162l-140 -137h-103zM623 905h162l-140 -137h-103z" />
    <glyph glyph-name="Omacron" unicode="&#x14c;" horiz-adv-x="822" 
d="M412 142q48 0 90 18t73 49t48.5 73t17.5 91q0 43 -12.5 78.5t-36.5 61.5t-60.5 40.5t-84.5 14.5t-90 -18t-73 -49t-48.5 -73t-17.5 -91q0 -43 12.5 -78.5t36.5 -61.5t60.5 -40.5t84.5 -14.5zM400 -12q-81 0 -144.5 26t-108 71.5t-67.5 106.5t-23 131q0 81 27 153
t78.5 127t126.5 87t170 32q81 0 144.5 -26t108 -71.5t67.5 -106.5t23 -131q0 -81 -27 -153t-78.5 -127t-126.5 -87t-170 -32zM359 891h348l-22 -104h-348z" />
    <glyph glyph-name="uni1ECC" unicode="&#x1ecc;" horiz-adv-x="822" 
d="M412 142q48 0 90 18t73 49t48.5 73t17.5 91q0 43 -12.5 78.5t-36.5 61.5t-60.5 40.5t-84.5 14.5t-90 -18t-73 -49t-48.5 -73t-17.5 -91q0 -43 12.5 -78.5t36.5 -61.5t60.5 -40.5t84.5 -14.5zM400 -12q-81 0 -144.5 26t-108 71.5t-67.5 106.5t-23 131q0 81 27 153
t78.5 127t126.5 87t170 32q81 0 144.5 -26t108 -71.5t67.5 -106.5t23 -131q0 -81 -27 -153t-78.5 -127t-126.5 -87t-170 -32zM332 -227q-34 0 -57.5 23.5t-23.5 56.5t23.5 56.5t57.5 23.5q33 0 56.5 -23.5t23.5 -56.5t-23.5 -56.5t-56.5 -23.5z" />
    <glyph glyph-name="Racute" unicode="&#x154;" horiz-adv-x="658" 
d="M169 710h240q54 0 95.5 -15t69 -40t41.5 -58t14 -69q0 -38 -9.5 -74t-31.5 -66.5t-58 -53.5t-90 -34l190 -300h-176l-185 293h-30l-62 -293h-159zM375 428q42 0 67 21.5t25 53.5q0 25 -17 43t-55 18h-98l-29 -136h107zM453 905h172l-153 -137h-118z" />
    <glyph glyph-name="Rcaron" unicode="&#x158;" horiz-adv-x="658" 
d="M169 710h240q54 0 95.5 -15t69 -40t41.5 -58t14 -69q0 -38 -9.5 -74t-31.5 -66.5t-58 -53.5t-90 -34l190 -300h-176l-185 293h-30l-62 -293h-159zM375 428q42 0 67 21.5t25 53.5q0 25 -17 43t-55 18h-98l-29 -136h107zM476 768h-138l-85 137h128l40 -50l62 50h136z" />
    <glyph glyph-name="uni0156" unicode="&#x156;" horiz-adv-x="658" 
d="M169 710h240q54 0 95.5 -15t69 -40t41.5 -58t14 -69q0 -38 -9.5 -74t-31.5 -66.5t-58 -53.5t-90 -34l190 -300h-176l-185 293h-30l-62 -293h-159zM375 428q42 0 67 21.5t25 53.5q0 25 -17 43t-55 18h-98l-29 -136h107zM189 -335l59 117h-57l29 139h141l-29 -139l-75 -117
h-68z" />
    <glyph glyph-name="Sacute" unicode="&#x15a;" horiz-adv-x="572" 
d="M266 -12q-43 0 -84 11t-76.5 31.5t-63.5 49.5t-44 64l135 86q10 -24 27 -41.5t36.5 -29t40.5 -17t39 -5.5q45 0 64.5 18t19.5 44q0 12 -3.5 22.5t-12.5 20.5t-25 20.5t-40 22.5l-36 18q-74 37 -107.5 83.5t-33.5 119.5q0 43 16 82t47.5 69t78 47.5t108.5 17.5
q33 0 66 -6.5t63.5 -21t57.5 -38.5t49 -58l-119 -94q-22 37 -54.5 52.5t-69.5 15.5q-33 0 -57.5 -13.5t-24.5 -42.5t21 -45.5t69 -39.5l30 -15q74 -38 106.5 -86.5t32.5 -124.5q0 -49 -17.5 -89t-50.5 -68.5t-80.5 -44t-107.5 -15.5zM434 905h172l-153 -137h-118z" />
    <glyph glyph-name="Scaron" unicode="&#x160;" horiz-adv-x="572" 
d="M266 -12q-43 0 -84 11t-76.5 31.5t-63.5 49.5t-44 64l135 86q10 -24 27 -41.5t36.5 -29t40.5 -17t39 -5.5q45 0 64.5 18t19.5 44q0 12 -3.5 22.5t-12.5 20.5t-25 20.5t-40 22.5l-36 18q-74 37 -107.5 83.5t-33.5 119.5q0 43 16 82t47.5 69t78 47.5t108.5 17.5
q33 0 66 -6.5t63.5 -21t57.5 -38.5t49 -58l-119 -94q-22 37 -54.5 52.5t-69.5 15.5q-33 0 -57.5 -13.5t-24.5 -42.5t21 -45.5t69 -39.5l30 -15q74 -38 106.5 -86.5t32.5 -124.5q0 -49 -17.5 -89t-50.5 -68.5t-80.5 -44t-107.5 -15.5zM457 768h-138l-85 137h128l40 -50l62 50
h136z" />
    <glyph glyph-name="Scedilla" unicode="&#x15e;" horiz-adv-x="572" 
d="M266 -12q-43 0 -84 11t-76.5 31.5t-63.5 49.5t-44 64l135 86q10 -24 27 -41.5t36.5 -29t40.5 -17t39 -5.5q45 0 64.5 18t19.5 44q0 12 -3.5 22.5t-12.5 20.5t-25 20.5t-40 22.5l-36 18q-74 37 -107.5 83.5t-33.5 119.5q0 43 16 82t47.5 69t78 47.5t108.5 17.5
q33 0 66 -6.5t63.5 -21t57.5 -38.5t49 -58l-119 -94q-22 37 -54.5 52.5t-69.5 15.5q-33 0 -57.5 -13.5t-24.5 -42.5t21 -45.5t69 -39.5l30 -15q74 -38 106.5 -86.5t32.5 -124.5q0 -49 -17.5 -89t-50.5 -68.5t-80.5 -44t-107.5 -15.5zM134 -128q29 -13 66 -13q8 0 18 1.5
t18.5 5.5t14 10t5.5 15q0 11 -9 15t-19 4q-13 0 -24.5 -3.5t-20.5 -8.5l-32 19l68 86h66l-37 -47q8 5 21.5 8.5t27.5 3.5q29 0 48 -17.5t19 -43.5q0 -48 -41 -79.5t-118 -31.5q-23 0 -48.5 3t-48.5 13z" />
    <glyph glyph-name="Scircumflex" unicode="&#x15c;" horiz-adv-x="572" 
d="M266 -12q-43 0 -84 11t-76.5 31.5t-63.5 49.5t-44 64l135 86q10 -24 27 -41.5t36.5 -29t40.5 -17t39 -5.5q45 0 64.5 18t19.5 44q0 12 -3.5 22.5t-12.5 20.5t-25 20.5t-40 22.5l-36 18q-74 37 -107.5 83.5t-33.5 119.5q0 43 16 82t47.5 69t78 47.5t108.5 17.5
q33 0 66 -6.5t63.5 -21t57.5 -38.5t49 -58l-119 -94q-22 37 -54.5 52.5t-69.5 15.5q-33 0 -57.5 -13.5t-24.5 -42.5t21 -45.5t69 -39.5l30 -15q74 -38 106.5 -86.5t32.5 -124.5q0 -49 -17.5 -89t-50.5 -68.5t-80.5 -44t-107.5 -15.5zM348 905h138l85 -137h-128l-40 50
l-62 -50h-136z" />
    <glyph glyph-name="uni0218" unicode="&#x218;" horiz-adv-x="572" 
d="M266 -12q-43 0 -84 11t-76.5 31.5t-63.5 49.5t-44 64l135 86q10 -24 27 -41.5t36.5 -29t40.5 -17t39 -5.5q45 0 64.5 18t19.5 44q0 12 -3.5 22.5t-12.5 20.5t-25 20.5t-40 22.5l-36 18q-74 37 -107.5 83.5t-33.5 119.5q0 43 16 82t47.5 69t78 47.5t108.5 17.5
q33 0 66 -6.5t63.5 -21t57.5 -38.5t49 -58l-119 -94q-22 37 -54.5 52.5t-69.5 15.5q-33 0 -57.5 -13.5t-24.5 -42.5t21 -45.5t69 -39.5l30 -15q74 -38 106.5 -86.5t32.5 -124.5q0 -49 -17.5 -89t-50.5 -68.5t-80.5 -44t-107.5 -15.5zM139 -335l59 117h-57l29 139h141
l-29 -139l-75 -117h-68z" />
    <glyph glyph-name="Tcaron" unicode="&#x164;" horiz-adv-x="559" 
d="M260 558h-181l32 152h524l-32 -152h-183l-119 -558h-160zM453 768h-138l-85 137h128l40 -50l62 50h136z" />
    <glyph glyph-name="uni0162" unicode="&#x162;" horiz-adv-x="559" 
d="M260 558h-181l32 152h524l-32 -152h-183l-119 -558h-160zM103 -335l59 117h-57l29 139h141l-29 -139l-75 -117h-68z" />
    <glyph glyph-name="uni021A" unicode="&#x21a;" horiz-adv-x="559" 
d="M260 558h-181l32 152h524l-32 -152h-183l-119 -558h-160zM103 -335l59 117h-57l29 139h141l-29 -139l-75 -117h-68z" />
    <glyph glyph-name="Ubreve" unicode="&#x16c;" horiz-adv-x="717" 
d="M653 288q-17 -78 -43.5 -135t-65.5 -93.5t-93.5 -54t-126.5 -17.5q-64 0 -116.5 23.5t-87.5 65.5t-48.5 100t1.5 127l86 406h160l-89 -417q-9 -40 -3.5 -68.5t21 -47t39.5 -27t53 -8.5q59 0 97.5 34t53.5 106l91 428h161zM479 747q-37 0 -69.5 12.5t-55.5 36t-33.5 57
t-1.5 74.5h83q-8 -50 15.5 -72.5t65.5 -22.5t69 24t37 71h86q-11 -85 -63.5 -132.5t-132.5 -47.5z" />
    <glyph glyph-name="Uhungarumlaut" unicode="&#x170;" horiz-adv-x="717" 
d="M653 288q-17 -78 -43.5 -135t-65.5 -93.5t-93.5 -54t-126.5 -17.5q-64 0 -116.5 23.5t-87.5 65.5t-48.5 100t1.5 127l86 406h160l-89 -417q-9 -40 -3.5 -68.5t21 -47t39.5 -27t53 -8.5q59 0 97.5 34t53.5 106l91 428h161zM390 905h162l-140 -137h-103zM580 905h162
l-140 -137h-103z" />
    <glyph glyph-name="Umacron" unicode="&#x16a;" horiz-adv-x="717" 
d="M653 288q-17 -78 -43.5 -135t-65.5 -93.5t-93.5 -54t-126.5 -17.5q-64 0 -116.5 23.5t-87.5 65.5t-48.5 100t1.5 127l86 406h160l-89 -417q-9 -40 -3.5 -68.5t21 -47t39.5 -27t53 -8.5q59 0 97.5 34t53.5 106l91 428h161zM316 891h348l-22 -104h-348z" />
    <glyph glyph-name="Uogonek" unicode="&#x172;" horiz-adv-x="717" 
d="M358 -75q0 -10 6 -15t15 -5t24 6l27 -91q-19 -11 -47.5 -17.5t-57.5 -6.5q-47 0 -80.5 20t-34.5 62q-1 30 15.5 58t54.5 57q-62 9 -106.5 38t-71 71.5t-34 94.5t4.5 107l86 406h160l-89 -417q-9 -40 -3.5 -68.5t21 -47t39.5 -27t53 -8.5q59 0 97.5 34t53.5 106l91 428
h161l-90 -422q-14 -65 -31.5 -109.5t-40 -75.5t-50.5 -52t-63 -38q-17 -8 -36 -17.5t-35.5 -20.5t-27.5 -23.5t-11 -26.5z" />
    <glyph glyph-name="Uring" unicode="&#x16e;" horiz-adv-x="717" 
d="M653 288q-17 -78 -43.5 -135t-65.5 -93.5t-93.5 -54t-126.5 -17.5q-64 0 -116.5 23.5t-87.5 65.5t-48.5 100t1.5 127l86 406h160l-89 -417q-9 -40 -3.5 -68.5t21 -47t39.5 -27t53 -8.5q59 0 97.5 34t53.5 106l91 428h161zM485 753q-25 0 -47 9.5t-38.5 26t-26.5 38
t-10 46.5t10 46.5t26.5 38t38.5 26t47 9.5t47 -9.5t38.5 -26t26.5 -38t10 -46.5t-10 -46.5t-26.5 -38t-38.5 -26t-47 -9.5zM485 818q23 0 39.5 16t16.5 39t-16.5 39t-39.5 16t-39.5 -16t-16.5 -39t16.5 -39t39.5 -16z" />
    <glyph glyph-name="Utilde" unicode="&#x168;" horiz-adv-x="717" 
d="M653 288q-17 -78 -43.5 -135t-65.5 -93.5t-93.5 -54t-126.5 -17.5q-64 0 -116.5 23.5t-87.5 65.5t-48.5 100t1.5 127l86 406h160l-89 -417q-9 -40 -3.5 -68.5t21 -47t39.5 -27t53 -8.5q59 0 97.5 34t53.5 106l91 428h161zM278 804q6 30 21 52t34 36.5t39.5 21.5t38.5 7
q24 0 43 -7.5t36 -16t31.5 -16t29.5 -7.5q20 0 33 12t21 36h83l-6 -28q-7 -30 -22 -52t-33.5 -36.5t-39 -21.5t-38.5 -7q-24 0 -43.5 7.5t-36 16t-31.5 16t-29 7.5q-21 0 -34 -12t-21 -36h-82z" />
    <glyph glyph-name="uni1EE4" unicode="&#x1ee4;" horiz-adv-x="717" 
d="M653 288q-17 -78 -43.5 -135t-65.5 -93.5t-93.5 -54t-126.5 -17.5q-64 0 -116.5 23.5t-87.5 65.5t-48.5 100t1.5 127l86 406h160l-89 -417q-9 -40 -3.5 -68.5t21 -47t39.5 -27t53 -8.5q59 0 97.5 34t53.5 106l91 428h161zM270 -227q-34 0 -57.5 23.5t-23.5 56.5
t23.5 56.5t57.5 23.5q33 0 56.5 -23.5t23.5 -56.5t-23.5 -56.5t-56.5 -23.5z" />
    <glyph glyph-name="Wacute" unicode="&#x1e82;" horiz-adv-x="1032" 
d="M104 710h167l37 -434l231 434h140l36 -447l227 447h174l-372 -710h-144l-38 459l-245 -459h-143zM668 905h172l-153 -137h-118z" />
    <glyph glyph-name="Wcircumflex" unicode="&#x174;" horiz-adv-x="1032" 
d="M104 710h167l37 -434l231 434h140l36 -447l227 447h174l-372 -710h-144l-38 459l-245 -459h-143zM582 905h138l85 -137h-128l-40 50l-62 -50h-136z" />
    <glyph glyph-name="Wdieresis" unicode="&#x1e84;" horiz-adv-x="1032" 
d="M104 710h167l37 -434l231 434h140l36 -447l227 447h174l-372 -710h-144l-38 459l-245 -459h-143zM521 768q-17 0 -31.5 6.5t-25.5 17.5t-17.5 25.5t-6.5 30.5q0 34 23.5 57.5t57.5 23.5q16 0 30.5 -6.5t25 -17.5t17 -25.5t6.5 -31.5q0 -16 -6.5 -30.5t-17 -25.5
t-25 -17.5t-30.5 -6.5zM758 768q-17 0 -31.5 6.5t-25 17.5t-17 25.5t-6.5 30.5q0 34 23.5 57.5t56.5 23.5t56.5 -23.5t23.5 -57.5q0 -16 -6.5 -30.5t-17 -25.5t-25.5 -17.5t-31 -6.5z" />
    <glyph glyph-name="Wgrave" unicode="&#x1e80;" horiz-adv-x="1032" 
d="M104 710h167l37 -434l231 434h140l36 -447l227 447h174l-372 -710h-144l-38 459l-245 -459h-143zM559 768l-94 137h168l41 -137h-115z" />
    <glyph glyph-name="Ycircumflex" unicode="&#x176;" horiz-adv-x="695" 
d="M274 298l-171 412h165l103 -263l216 263h194l-347 -412l-63 -298h-160zM399 905h138l85 -137h-128l-40 50l-62 -50h-136z" />
    <glyph glyph-name="Ydieresis" unicode="&#x178;" horiz-adv-x="695" 
d="M274 298l-171 412h165l103 -263l216 263h194l-347 -412l-63 -298h-160zM338 768q-17 0 -31.5 6.5t-25.5 17.5t-17.5 25.5t-6.5 30.5q0 34 23.5 57.5t57.5 23.5q16 0 30.5 -6.5t25 -17.5t17 -25.5t6.5 -31.5q0 -16 -6.5 -30.5t-17 -25.5t-25 -17.5t-30.5 -6.5zM575 768
q-17 0 -31.5 6.5t-25 17.5t-17 25.5t-6.5 30.5q0 34 23.5 57.5t56.5 23.5t56.5 -23.5t23.5 -57.5q0 -16 -6.5 -30.5t-17 -25.5t-25.5 -17.5t-31 -6.5z" />
    <glyph glyph-name="Ygrave" unicode="&#x1ef2;" horiz-adv-x="695" 
d="M274 298l-171 412h165l103 -263l216 263h194l-347 -412l-63 -298h-160zM376 768l-94 137h168l41 -137h-115z" />
    <glyph glyph-name="uni0232" unicode="&#x232;" horiz-adv-x="695" 
d="M274 298l-171 412h165l103 -263l216 263h194l-347 -412l-63 -298h-160zM292 891h348l-22 -104h-348z" />
    <glyph glyph-name="Zacute" unicode="&#x179;" horiz-adv-x="623" 
d="M4 109l407 449h-306l32 152h537l-23 -109l-408 -449h318l-32 -152h-548zM463 905h172l-153 -137h-118z" />
    <glyph glyph-name="Zcaron" unicode="&#x17d;" horiz-adv-x="623" 
d="M4 109l407 449h-306l32 152h537l-23 -109l-408 -449h318l-32 -152h-548zM486 768h-138l-85 137h128l40 -50l62 50h136z" />
    <glyph glyph-name="Zdotaccent" unicode="&#x17b;" horiz-adv-x="623" 
d="M4 109l407 449h-306l32 152h537l-23 -109l-408 -449h318l-32 -152h-548zM435 768q-17 0 -31.5 6.5t-25.5 17.5t-17.5 25.5t-6.5 30.5q0 34 23.5 57.5t57.5 23.5q33 0 56.5 -23.5t23.5 -57.5q0 -16 -6.5 -30.5t-17 -25.5t-25.5 -17.5t-31 -6.5z" />
    <glyph glyph-name="uni1E9E" unicode="&#x1e9e;" horiz-adv-x="659" 
d="M169 710h496l-23 -108l-129 -161q52 -22 78 -67t26 -99q0 -63 -20.5 -114t-60.5 -86.5t-97.5 -55t-132.5 -19.5h-58l32 152h43q57 0 92.5 27t35.5 81q0 37 -25 60.5t-62 23.5h-43l23 108l90 113h-137l-120 -565h-159z" />
    <glyph glyph-name="abreve" unicode="&#x103;" horiz-adv-x="607" 
d="M277 122q19 0 35 6t29 14.5t22.5 18t15.5 17.5l32 149q-11 19 -33 33t-54 14q-27 0 -52.5 -10.5t-45 -30t-31.5 -46t-12 -59.5q0 -48 24 -77t70 -29zM228 -11q-47 0 -83 18t-61.5 49t-38.5 71.5t-13 85.5q0 65 21 120t58.5 94.5t88 61.5t110.5 22q43 0 78 -15.5t51 -34.5
l8 39h151l-106 -500h-151l7 32q-17 -17 -49.5 -30t-70.5 -13zM401 545q-39 0 -71 14t-54.5 38.5t-32 58.5t-3.5 74h86q-3 -28 2.5 -47t17 -30.5t27.5 -16.5t34 -5t34.5 6t30.5 18t24 30.5t14 44.5h86q-1 -41 -15.5 -74.5t-40.5 -58.5t-61.5 -38.5t-77.5 -13.5z" />
    <glyph glyph-name="amacron" unicode="&#x101;" horiz-adv-x="607" 
d="M277 122q19 0 35 6t29 14.5t22.5 18t15.5 17.5l32 149q-11 19 -33 33t-54 14q-27 0 -52.5 -10.5t-45 -30t-31.5 -46t-12 -59.5q0 -48 24 -77t70 -29zM228 -11q-47 0 -83 18t-61.5 49t-38.5 71.5t-13 85.5q0 65 21 120t58.5 94.5t88 61.5t110.5 22q43 0 78 -15.5t51 -34.5
l8 39h151l-106 -500h-151l7 32q-17 -17 -49.5 -30t-70.5 -13zM242 710h348l-22 -104h-348z" />
    <glyph glyph-name="aogonek" unicode="&#x105;" horiz-adv-x="607" 
d="M277 122q19 0 35 6t29 14.5t22.5 18t15.5 17.5l32 149q-11 19 -33 33t-54 14q-27 0 -52.5 -10.5t-45 -30t-31.5 -46t-12 -59.5q0 -48 24 -77t70 -29zM228 -11q-47 0 -83 18t-61.5 49t-38.5 71.5t-13 85.5q0 65 21 120t58.5 94.5t88 61.5t110.5 22q43 0 78 -15.5t51 -34.5
l8 39h151l-106 -500h-151l7 32q-17 -17 -49.5 -30t-70.5 -13zM367 -204q-46 0 -77 22.5t-31 60.5q0 71 83 121h151q-50 -20 -73 -40t-23 -39q0 -14 8 -18t16 -4q12 0 28 8l24 -83q-25 -14 -53.5 -21t-52.5 -7z" />
    <glyph glyph-name="cacute" unicode="&#x107;" horiz-adv-x="558" 
d="M278 -12q-62 0 -107.5 20t-76.5 53t-46 76t-15 89q0 60 21 112.5t58.5 91t90.5 60.5t116 22q41 0 77.5 -12t66 -33t50.5 -49.5t32 -61.5l-135 -63q-10 34 -36 56t-66 22q-27 0 -49.5 -10.5t-39 -28.5t-25.5 -42t-9 -51q0 -50 26 -80t74 -30q42 0 72 21.5t44 53.5l125 -81
q-36 -62 -95.5 -98.5t-152.5 -36.5zM401 730h179l-178 -174h-118z" />
    <glyph glyph-name="ccaron" unicode="&#x10d;" horiz-adv-x="558" 
d="M278 -12q-62 0 -107.5 20t-76.5 53t-46 76t-15 89q0 60 21 112.5t58.5 91t90.5 60.5t116 22q41 0 77.5 -12t66 -33t50.5 -49.5t32 -61.5l-135 -63q-10 34 -36 56t-66 22q-27 0 -49.5 -10.5t-39 -28.5t-25.5 -42t-9 -51q0 -50 26 -80t74 -30q42 0 72 21.5t44 53.5l125 -81
q-36 -62 -95.5 -98.5t-152.5 -36.5zM413 578h-126l-95 152h122l48 -61l74 61h136z" />
    <glyph glyph-name="ccircumflex" unicode="&#x109;" horiz-adv-x="558" 
d="M278 -12q-62 0 -107.5 20t-76.5 53t-46 76t-15 89q0 60 21 112.5t58.5 91t90.5 60.5t116 22q41 0 77.5 -12t66 -33t50.5 -49.5t32 -61.5l-135 -63q-10 34 -36 56t-66 22q-27 0 -49.5 -10.5t-39 -28.5t-25.5 -42t-9 -51q0 -50 26 -80t74 -30q42 0 72 21.5t44 53.5l125 -81
q-36 -62 -95.5 -98.5t-152.5 -36.5zM319 730h126l95 -152h-122l-48 61l-74 -61h-136z" />
    <glyph glyph-name="cdotaccent" unicode="&#x10b;" horiz-adv-x="558" 
d="M278 -12q-62 0 -107.5 20t-76.5 53t-46 76t-15 89q0 60 21 112.5t58.5 91t90.5 60.5t116 22q41 0 77.5 -12t66 -33t50.5 -49.5t32 -61.5l-135 -63q-10 34 -36 56t-66 22q-27 0 -49.5 -10.5t-39 -28.5t-25.5 -42t-9 -51q0 -50 26 -80t74 -30q42 0 72 21.5t44 53.5l125 -81
q-36 -62 -95.5 -98.5t-152.5 -36.5zM364 562q-17 0 -31.5 6.5t-25.5 17t-17.5 25t-6.5 30.5q0 34 23.5 57.5t57.5 23.5q33 0 56.5 -23.5t23.5 -57.5q0 -32 -23.5 -55.5t-56.5 -23.5z" />
    <glyph glyph-name="dcaron" unicode="&#x10f;" horiz-adv-x="615" 
d="M228 -11q-47 0 -83 18t-61.5 49t-38.5 71.5t-13 85.5q0 65 21 120t58.5 94.5t88 61.5t110.5 22q43 0 78 -15.5t51 -34.5l57 269h151l-155 -730h-151l7 32q-17 -17 -49.5 -30t-70.5 -13zM277 122q19 0 35 6t29 14.5t22.5 18t15.5 17.5l32 149q-11 19 -33 33t-54 14
q-27 0 -52.5 -10.5t-45 -30t-31.5 -46t-12 -59.5q0 -48 24 -77t70 -29zM683 730h151l-103 -160h-102z" />
    <glyph glyph-name="dcroat" unicode="&#x111;" horiz-adv-x="607" 
d="M228 -11q-47 0 -83 18t-61.5 49t-38.5 71.5t-13 85.5q0 65 21 120t58.5 94.5t88 61.5t110.5 22q43 0 78 -15.5t51 -34.5l57 269h151l-155 -730h-151l7 32q-17 -17 -49.5 -30t-70.5 -13zM277 122q19 0 35 6t29 14.5t22.5 18t15.5 17.5l32 149q-11 19 -33 33t-54 14
q-27 0 -52.5 -10.5t-45 -30t-31.5 -46t-12 -59.5q0 -48 24 -77t70 -29zM348 660h343l-20 -96h-343z" />
    <glyph glyph-name="ebreve" unicode="&#x115;" horiz-adv-x="581" 
d="M277 -11q-61 0 -106.5 20t-76 53t-45.5 76t-15 89q0 62 19.5 114.5t56 90t89.5 58.5t120 21q57 0 104.5 -21.5t79 -60.5t44 -94t0.5 -121h-372q3 -22 13 -38.5t25.5 -27.5t34.5 -16.5t39 -5.5q42 0 66.5 16.5t44.5 40.5l111 -86q-35 -49 -90.5 -78.5t-141.5 -29.5z
M308 388q-18 0 -37.5 -4.5t-36.5 -14t-31 -23.5t-21 -33h224q-5 38 -33 56.5t-65 18.5zM355 545q-39 0 -71 14t-54.5 38.5t-32 58.5t-3.5 74h86q-3 -28 2.5 -47t17 -30.5t27.5 -16.5t34 -5t34.5 6t30.5 18t24 30.5t14 44.5h86q-1 -41 -15.5 -74.5t-40.5 -58.5t-61.5 -38.5
t-77.5 -13.5z" />
    <glyph glyph-name="ecaron" unicode="&#x11b;" horiz-adv-x="581" 
d="M277 -11q-61 0 -106.5 20t-76 53t-45.5 76t-15 89q0 62 19.5 114.5t56 90t89.5 58.5t120 21q57 0 104.5 -21.5t79 -60.5t44 -94t0.5 -121h-372q3 -22 13 -38.5t25.5 -27.5t34.5 -16.5t39 -5.5q42 0 66.5 16.5t44.5 40.5l111 -86q-35 -49 -90.5 -78.5t-141.5 -29.5z
M308 388q-18 0 -37.5 -4.5t-36.5 -14t-31 -23.5t-21 -33h224q-5 38 -33 56.5t-65 18.5zM405 578h-126l-95 152h122l48 -61l74 61h136z" />
    <glyph glyph-name="emacron" unicode="&#x113;" horiz-adv-x="581" 
d="M277 -11q-61 0 -106.5 20t-76 53t-45.5 76t-15 89q0 62 19.5 114.5t56 90t89.5 58.5t120 21q57 0 104.5 -21.5t79 -60.5t44 -94t0.5 -121h-372q3 -22 13 -38.5t25.5 -27.5t34.5 -16.5t39 -5.5q42 0 66.5 16.5t44.5 40.5l111 -86q-35 -49 -90.5 -78.5t-141.5 -29.5z
M308 388q-18 0 -37.5 -4.5t-36.5 -14t-31 -23.5t-21 -33h224q-5 38 -33 56.5t-65 18.5zM196 710h348l-22 -104h-348z" />
    <glyph glyph-name="eogonek" unicode="&#x119;" horiz-adv-x="581" 
d="M237 -118q0 35 22.5 61.5t60.5 48.5q-16 -2 -26 -2.5t-17 -0.5q-61 0 -106.5 20t-76 53t-45.5 76t-15 89q0 62 19.5 114.5t56 90t89.5 58.5t120 21q57 0 104.5 -21.5t79 -60.5t44 -94t0.5 -121h-372q3 -22 13 -38.5t25.5 -27.5t34.5 -16.5t39 -5.5q42 0 66.5 16.5
t44.5 40.5l111 -86q-40 -37 -66 -65.5t-41 -50t-21 -36.5t-6 -24q0 -14 8 -18t16 -4q12 0 28 8l24 -83q-25 -14 -53.5 -21t-52.5 -7q-46 0 -77 22.5t-31 63.5zM308 388q-18 0 -37.5 -4.5t-36.5 -14t-31 -23.5t-21 -33h224q-5 38 -33 56.5t-65 18.5z" />
    <glyph glyph-name="edotaccent" unicode="&#x117;" horiz-adv-x="581" 
d="M277 -11q-61 0 -106.5 20t-76 53t-45.5 76t-15 89q0 62 19.5 114.5t56 90t89.5 58.5t120 21q57 0 104.5 -21.5t79 -60.5t44 -94t0.5 -121h-372q3 -22 13 -38.5t25.5 -27.5t34.5 -16.5t39 -5.5q42 0 66.5 16.5t44.5 40.5l111 -86q-35 -49 -90.5 -78.5t-141.5 -29.5z
M308 388q-18 0 -37.5 -4.5t-36.5 -14t-31 -23.5t-21 -33h224q-5 38 -33 56.5t-65 18.5zM356 562q-17 0 -31.5 6.5t-25.5 17t-17.5 25t-6.5 30.5q0 34 23.5 57.5t57.5 23.5q33 0 56.5 -23.5t23.5 -57.5q0 -32 -23.5 -55.5t-56.5 -23.5z" />
    <glyph glyph-name="gbreve" unicode="&#x11f;" horiz-adv-x="610" 
d="M222 -204q-36 0 -71.5 6t-66.5 16.5t-56 25t-40 31.5l96 106q27 -26 65.5 -39.5t74.5 -13.5q19 0 39 5.5t37.5 17t31 30t18.5 44.5l6 29q-17 -17 -49.5 -30t-67.5 -13q-47 0 -85 17.5t-64.5 47t-41 68t-14.5 80.5q0 63 21 115.5t58 91t88 59.5t111 21q43 0 78.5 -15.5
t51.5 -34.5l8 39h151l-102 -484q-14 -65 -40.5 -107.5t-62.5 -67.5t-80 -35t-94 -10zM282 144q20 0 36.5 6t29.5 14.5t23 18t16 17.5l27 127q-11 19 -33 33t-56 14q-29 0 -54 -9.5t-44.5 -27t-30.5 -41.5t-11 -52q0 -45 24.5 -72.5t72.5 -27.5zM387 545q-39 0 -71 14
t-54.5 38.5t-32 58.5t-3.5 74h86q-3 -28 2.5 -47t17 -30.5t27.5 -16.5t34 -5t34.5 6t30.5 18t24 30.5t14 44.5h86q-1 -41 -15.5 -74.5t-40.5 -58.5t-61.5 -38.5t-77.5 -13.5z" />
    <glyph glyph-name="gcircumflex" unicode="&#x11d;" horiz-adv-x="610" 
d="M222 -204q-36 0 -71.5 6t-66.5 16.5t-56 25t-40 31.5l96 106q27 -26 65.5 -39.5t74.5 -13.5q19 0 39 5.5t37.5 17t31 30t18.5 44.5l6 29q-17 -17 -49.5 -30t-67.5 -13q-47 0 -85 17.5t-64.5 47t-41 68t-14.5 80.5q0 63 21 115.5t58 91t88 59.5t111 21q43 0 78.5 -15.5
t51.5 -34.5l8 39h151l-102 -484q-14 -65 -40.5 -107.5t-62.5 -67.5t-80 -35t-94 -10zM282 144q20 0 36.5 6t29.5 14.5t23 18t16 17.5l27 127q-11 19 -33 33t-56 14q-29 0 -54 -9.5t-44.5 -27t-30.5 -41.5t-11 -52q0 -45 24.5 -72.5t72.5 -27.5zM343 730h126l95 -152h-122
l-48 61l-74 -61h-136z" />
    <glyph glyph-name="uni0123" unicode="&#x123;" horiz-adv-x="610" 
d="M222 -204q-36 0 -71.5 6t-66.5 16.5t-56 25t-40 31.5l96 106q27 -26 65.5 -39.5t74.5 -13.5q19 0 39 5.5t37.5 17t31 30t18.5 44.5l6 29q-17 -17 -49.5 -30t-67.5 -13q-47 0 -85 17.5t-64.5 47t-41 68t-14.5 80.5q0 63 21 115.5t58 91t88 59.5t111 21q43 0 78.5 -15.5
t51.5 -34.5l8 39h151l-102 -484q-14 -65 -40.5 -107.5t-62.5 -67.5t-80 -35t-94 -10zM282 144q20 0 36.5 6t29.5 14.5t23 18t16 17.5l27 127q-11 19 -33 33t-56 14q-29 0 -54 -9.5t-44.5 -27t-30.5 -41.5t-11 -52q0 -45 24.5 -72.5t72.5 -27.5zM475 828l-59 -117h57
l-29 -139h-141l29 139l75 117h68z" />
    <glyph glyph-name="gdotaccent" unicode="&#x121;" horiz-adv-x="610" 
d="M222 -204q-36 0 -71.5 6t-66.5 16.5t-56 25t-40 31.5l96 106q27 -26 65.5 -39.5t74.5 -13.5q19 0 39 5.5t37.5 17t31 30t18.5 44.5l6 29q-17 -17 -49.5 -30t-67.5 -13q-47 0 -85 17.5t-64.5 47t-41 68t-14.5 80.5q0 63 21 115.5t58 91t88 59.5t111 21q43 0 78.5 -15.5
t51.5 -34.5l8 39h151l-102 -484q-14 -65 -40.5 -107.5t-62.5 -67.5t-80 -35t-94 -10zM282 144q20 0 36.5 6t29.5 14.5t23 18t16 17.5l27 127q-11 19 -33 33t-56 14q-29 0 -54 -9.5t-44.5 -27t-30.5 -41.5t-11 -52q0 -45 24.5 -72.5t72.5 -27.5zM388 562q-17 0 -31.5 6.5
t-25.5 17t-17.5 25t-6.5 30.5q0 34 23.5 57.5t57.5 23.5q33 0 56.5 -23.5t23.5 -57.5q0 -32 -23.5 -55.5t-56.5 -23.5z" />
    <glyph glyph-name="hbar" unicode="&#x127;" horiz-adv-x="600" 
d="M164 730h151l-56 -266q26 23 57.5 35t74.5 12q47 0 81.5 -20.5t55 -53.5t27 -75t-2.5 -85l-59 -277h-151l56 265q4 22 3.5 41.5t-8 34.5t-23 24t-41.5 9q-24 0 -51 -11.5t-48 -34.5l-70 -328h-151zM90 660h343l-20 -96h-343z" />
    <glyph glyph-name="hcircumflex" unicode="&#x125;" horiz-adv-x="600" 
d="M164 730h151l-56 -266q26 23 57.5 35t74.5 12q47 0 81.5 -20.5t55 -53.5t27 -75t-2.5 -85l-59 -277h-151l56 265q4 22 3.5 41.5t-8 34.5t-23 24t-41.5 9q-24 0 -51 -11.5t-48 -34.5l-70 -328h-151zM403 905h138l85 -137h-128l-40 50l-62 -50h-136z" />
    <glyph glyph-name="dotlessi" unicode="&#x131;" horiz-adv-x="275" 
d="M115 500h151l-106 -500h-151z" />
    <glyph glyph-name="ibreve" unicode="&#x12d;" horiz-adv-x="275" 
d="M115 500h151l-106 -500h-151zM220 545q-39 0 -71 14t-54.5 38.5t-32 58.5t-3.5 74h86q-3 -28 2.5 -47t17 -30.5t27.5 -16.5t34 -5t34.5 6t30.5 18t24 30.5t14 44.5h86q-1 -41 -15.5 -74.5t-40.5 -58.5t-61.5 -38.5t-77.5 -13.5z" />
    <glyph glyph-name="imacron" unicode="&#x12b;" horiz-adv-x="275" 
d="M115 500h151l-106 -500h-151zM61 710h348l-22 -104h-348z" />
    <glyph glyph-name="iogonek" unicode="&#x12f;" horiz-adv-x="275" 
d="M220 548q-19 0 -36 7.5t-30 20t-20.5 29.5t-7.5 37q0 19 7.5 36.5t20.5 30t30 20t36 7.5q20 0 37.5 -7.5t30 -20t20 -30t7.5 -36.5q0 -20 -7.5 -37t-20 -29.5t-30 -20t-37.5 -7.5zM115 500h151l-106 -500h-151zM34 -204q-46 0 -77 22.5t-31 60.5q0 71 83 121h151
q-50 -20 -73 -40t-23 -39q0 -14 8 -18t16 -4q12 0 28 8l24 -83q-25 -14 -53.5 -21t-52.5 -7z" />
    <glyph glyph-name="itilde" unicode="&#x129;" horiz-adv-x="275" 
d="M115 500h151l-106 -500h-151zM427 711l-8 -28q-17 -59 -52.5 -88t-84.5 -29q-24 0 -42.5 7.5t-33.5 16t-28 16t-26 7.5q-20 0 -32 -12.5t-21 -35.5h-88l8 28q17 59 52.5 88t84.5 29q24 0 42.5 -7.5t33.5 -16t28 -16t26 -7.5q20 0 32 12.5t21 35.5h88z" />
    <glyph glyph-name="uni1ECB" unicode="&#x1ecb;" horiz-adv-x="275" 
d="M220 548q-19 0 -36 7.5t-30 20t-20.5 29.5t-7.5 37q0 19 7.5 36.5t20.5 30t30 20t36 7.5q20 0 37.5 -7.5t30 -20t20 -30t7.5 -36.5q0 -20 -7.5 -37t-20 -29.5t-30 -20t-37.5 -7.5zM115 500h151l-106 -500h-151zM54 -228q-34 0 -57.5 23.5t-23.5 56.5t23.5 56.5t57.5 23.5
q33 0 56.5 -23.5t23.5 -56.5t-23.5 -56.5t-56.5 -23.5z" />
    <glyph glyph-name="uni0237" unicode="&#x237;" horiz-adv-x="283" 
d="M-55 -199q-43 0 -80.5 10t-53.5 19l61 116q17 -8 32.5 -11.5t29.5 -3.5q32 0 54.5 23.5t33.5 73.5l101 472h151l-109 -510q-22 -103 -80 -146t-140 -43z" />
    <glyph glyph-name="jcircumflex" unicode="&#x135;" horiz-adv-x="283" 
d="M-55 -199q-43 0 -80.5 10t-53.5 19l61 116q17 -8 32.5 -11.5t29.5 -3.5q32 0 54.5 23.5t33.5 73.5l101 472h151l-109 -510q-22 -103 -80 -146t-140 -43zM185 730h126l95 -152h-122l-48 61l-74 -61h-136z" />
    <glyph glyph-name="uni0137" unicode="&#x137;" horiz-adv-x="558" 
d="M208 226l-48 -226h-151l155 730h151l-87 -407l174 177h189l-237 -241l175 -259h-169zM142 -335l59 117h-57l29 139h141l-29 -139l-75 -117h-68z" />
    <glyph glyph-name="lacute" unicode="&#x13a;" horiz-adv-x="275" 
d="M164 730h151l-155 -730h-151zM308 960h179l-178 -174h-118z" />
    <glyph glyph-name="lcaron" unicode="&#x13e;" horiz-adv-x="283" 
d="M164 730h151l-155 -730h-151zM351 730h151l-103 -160h-102z" />
    <glyph glyph-name="uni013C" unicode="&#x13c;" horiz-adv-x="275" 
d="M164 730h151l-155 -730h-151zM-33 -335l59 117h-57l29 139h141l-29 -139l-75 -117h-68z" />
    <glyph glyph-name="ldot" unicode="&#x140;" horiz-adv-x="411" 
d="M164 730h151l-155 -730h-151zM367 283q-34 0 -57.5 23.5t-23.5 56.5q0 34 23.5 57.5t57.5 23.5q33 0 56.5 -23.5t23.5 -57.5q0 -33 -23.5 -56.5t-56.5 -23.5z" />
    <glyph glyph-name="lslash" unicode="&#x142;" horiz-adv-x="361" 
d="M207 730h151l-155 -730h-151zM24 218l26 123l334 171l-27 -124z" />
    <glyph glyph-name="nacute" unicode="&#x144;" horiz-adv-x="600" 
d="M115 500h151l-7 -36q26 23 57.5 35t74.5 12q47 0 81.5 -20.5t55 -53.5t27 -75t-2.5 -85l-59 -277h-151l56 265q4 22 3.5 41.5t-8 34.5t-23 24t-41.5 9q-24 0 -51 -11.5t-48 -34.5l-70 -328h-151zM424 730h179l-178 -174h-118z" />
    <glyph glyph-name="ncaron" unicode="&#x148;" horiz-adv-x="600" 
d="M115 500h151l-7 -36q26 23 57.5 35t74.5 12q47 0 81.5 -20.5t55 -53.5t27 -75t-2.5 -85l-59 -277h-151l56 265q4 22 3.5 41.5t-8 34.5t-23 24t-41.5 9q-24 0 -51 -11.5t-48 -34.5l-70 -328h-151zM436 578h-126l-95 152h122l48 -61l74 61h136z" />
    <glyph glyph-name="uni0146" unicode="&#x146;" horiz-adv-x="600" 
d="M115 500h151l-7 -36q26 23 57.5 35t74.5 12q47 0 81.5 -20.5t55 -53.5t27 -75t-2.5 -85l-59 -277h-151l56 265q4 22 3.5 41.5t-8 34.5t-23 24t-41.5 9q-24 0 -51 -11.5t-48 -34.5l-70 -328h-151zM133 -335l59 117h-57l29 139h141l-29 -139l-75 -117h-68z" />
    <glyph glyph-name="oe" unicode="&#x153;" horiz-adv-x="953" 
d="M649 -11q-60 0 -105 19t-75 51q-38 -33 -87 -52t-109 -19t-105 20t-75 53t-45 76t-15 89q0 60 20.5 112.5t58 90.5t90.5 60t117 22q57 0 101 -18.5t74 -49.5q36 32 85 50t112 18q57 0 104.5 -21.5t79 -60.5t44 -94t0.5 -121h-372q3 -22 13 -38.5t25.5 -27.5t34.5 -16.5
t39 -5.5q42 0 66.5 16.5t44.5 40.5l111 -86q-35 -49 -90.5 -78.5t-141.5 -29.5zM286 129q26 0 48.5 10t38.5 28t25 42t9 51q0 50 -26.5 80t-74.5 30q-26 0 -48.5 -10t-38.5 -28t-25 -42t-9 -51q0 -50 26.5 -80t74.5 -30zM680 388q-18 0 -37.5 -4.5t-36.5 -14t-31 -23.5
t-21 -33h224q-5 38 -33 56.5t-65 18.5z" />
    <glyph glyph-name="obreve" unicode="&#x14f;" horiz-adv-x="592" 
d="M286 129q26 0 48.5 10t38.5 28t25 42t9 51q0 50 -26.5 80t-74.5 30q-26 0 -48.5 -10t-38.5 -28t-25 -42t-9 -51q0 -50 26.5 -80t74.5 -30zM273 -12q-60 0 -105 20t-75 53t-45 76t-15 89q0 60 20.5 112.5t58 90.5t90.5 60t117 22q60 0 105 -20t75 -53t45 -76t15 -89
q0 -60 -20.5 -112.5t-58 -90.5t-90.5 -60t-117 -22zM379 545q-39 0 -71 14t-54.5 38.5t-32 58.5t-3.5 74h86q-3 -28 2.5 -47t17 -30.5t27.5 -16.5t34 -5t34.5 6t30.5 18t24 30.5t14 44.5h86q-1 -41 -15.5 -74.5t-40.5 -58.5t-61.5 -38.5t-77.5 -13.5z" />
    <glyph glyph-name="ohungarumlaut" unicode="&#x151;" horiz-adv-x="592" 
d="M286 129q26 0 48.5 10t38.5 28t25 42t9 51q0 50 -26.5 80t-74.5 30q-26 0 -48.5 -10t-38.5 -28t-25 -42t-9 -51q0 -50 26.5 -80t74.5 -30zM273 -12q-60 0 -105 20t-75 53t-45 76t-15 89q0 60 20.5 112.5t58 90.5t90.5 60t117 22q60 0 105 -20t75 -53t45 -76t15 -89
q0 -60 -20.5 -112.5t-58 -90.5t-90.5 -60t-117 -22zM295 730h163l-146 -174h-106zM487 730h163l-146 -174h-106z" />
    <glyph glyph-name="omacron" unicode="&#x14d;" horiz-adv-x="592" 
d="M286 129q26 0 48.5 10t38.5 28t25 42t9 51q0 50 -26.5 80t-74.5 30q-26 0 -48.5 -10t-38.5 -28t-25 -42t-9 -51q0 -50 26.5 -80t74.5 -30zM273 -12q-60 0 -105 20t-75 53t-45 76t-15 89q0 60 20.5 112.5t58 90.5t90.5 60t117 22q60 0 105 -20t75 -53t45 -76t15 -89
q0 -60 -20.5 -112.5t-58 -90.5t-90.5 -60t-117 -22zM220 710h348l-22 -104h-348z" />
    <glyph glyph-name="uni1ECD" unicode="&#x1ecd;" horiz-adv-x="592" 
d="M286 129q26 0 48.5 10t38.5 28t25 42t9 51q0 50 -26.5 80t-74.5 30q-26 0 -48.5 -10t-38.5 -28t-25 -42t-9 -51q0 -50 26.5 -80t74.5 -30zM273 -12q-60 0 -105 20t-75 53t-45 76t-15 89q0 60 20.5 112.5t58 90.5t90.5 60t117 22q60 0 105 -20t75 -53t45 -76t15 -89
q0 -60 -20.5 -112.5t-58 -90.5t-90.5 -60t-117 -22zM215 -228q-34 0 -57.5 23.5t-23.5 56.5t23.5 56.5t57.5 23.5q33 0 56.5 -23.5t23.5 -56.5t-23.5 -56.5t-56.5 -23.5z" />
    <glyph glyph-name="racute" unicode="&#x155;" horiz-adv-x="394" 
d="M115 500h151l-12 -56q18 26 52.5 44t72.5 18q20 0 35.5 -3.5t22.5 -6.5l-54 -144q-5 2 -16 5.5t-28 3.5q-23 0 -55.5 -10t-56.5 -35l-67 -316h-151zM342 730h179l-178 -174h-118z" />
    <glyph glyph-name="rcaron" unicode="&#x159;" horiz-adv-x="394" 
d="M115 500h151l-12 -56q18 26 52.5 44t72.5 18q20 0 35.5 -3.5t22.5 -6.5l-54 -144q-5 2 -16 5.5t-28 3.5q-23 0 -55.5 -10t-56.5 -35l-67 -316h-151zM354 578h-126l-95 152h122l48 -61l74 61h136z" />
    <glyph glyph-name="uni0157" unicode="&#x157;" horiz-adv-x="394" 
d="M115 500h151l-12 -56q18 26 52.5 44t72.5 18q20 0 35.5 -3.5t22.5 -6.5l-54 -144q-5 2 -16 5.5t-28 3.5q-23 0 -55.5 -10t-56.5 -35l-67 -316h-151zM-34 -335l59 117h-57l29 139h141l-29 -139l-75 -117h-68z" />
    <glyph glyph-name="sacute" unicode="&#x15b;" horiz-adv-x="466" 
d="M207 -12q-31 0 -62 6.5t-59 20t-51 34t-38 49.5l116 82q8 -16 20.5 -27.5t27 -19t29.5 -11.5t28 -4q20 0 32 7t12 20q0 14 -12 22t-42 19l-31 11q-55 20 -83.5 58.5t-28.5 86.5q0 41 15 72.5t41.5 53t62.5 32.5t78 11q57 0 106.5 -26t74.5 -76l-109 -70q-16 27 -37 37
t-39 10q-17 0 -29 -7t-12 -22q0 -8 6.5 -17t28.5 -17l42 -15q56 -20 87.5 -54.5t31.5 -87.5q0 -46 -17.5 -79.5t-46 -55.5t-65.5 -32.5t-77 -10.5zM355 730h179l-178 -174h-118z" />
    <glyph glyph-name="scaron" unicode="&#x161;" horiz-adv-x="466" 
d="M207 -12q-31 0 -62 6.5t-59 20t-51 34t-38 49.5l116 82q8 -16 20.5 -27.5t27 -19t29.5 -11.5t28 -4q20 0 32 7t12 20q0 14 -12 22t-42 19l-31 11q-55 20 -83.5 58.5t-28.5 86.5q0 41 15 72.5t41.5 53t62.5 32.5t78 11q57 0 106.5 -26t74.5 -76l-109 -70q-16 27 -37 37
t-39 10q-17 0 -29 -7t-12 -22q0 -8 6.5 -17t28.5 -17l42 -15q56 -20 87.5 -54.5t31.5 -87.5q0 -46 -17.5 -79.5t-46 -55.5t-65.5 -32.5t-77 -10.5zM367 578h-126l-95 152h122l48 -61l74 61h136z" />
    <glyph glyph-name="scedilla" unicode="&#x15f;" horiz-adv-x="466" 
d="M207 -12q-31 0 -62 6.5t-59 20t-51 34t-38 49.5l116 82q8 -16 20.5 -27.5t27 -19t29.5 -11.5t28 -4q20 0 32 7t12 20q0 14 -12 22t-42 19l-31 11q-55 20 -83.5 58.5t-28.5 86.5q0 41 15 72.5t41.5 53t62.5 32.5t78 11q57 0 106.5 -26t74.5 -76l-109 -70q-16 27 -37 37
t-39 10q-17 0 -29 -7t-12 -22q0 -8 6.5 -17t28.5 -17l42 -15q56 -20 87.5 -54.5t31.5 -87.5q0 -46 -17.5 -79.5t-46 -55.5t-65.5 -32.5t-77 -10.5zM78 -127q17 -8 33.5 -11t31.5 -3q7 0 17 1.5t18.5 5t14.5 9.5t6 16q0 11 -9 15t-20 4q-12 0 -23.5 -3.5t-20.5 -8.5l-32 19
l67 86h67l-38 -49q8 5 22 9.5t30 4.5q30 0 47.5 -16.5t17.5 -42.5q0 -23 -12 -43.5t-33.5 -36t-50.5 -24.5t-63 -9q-23 0 -48.5 3t-48.5 13z" />
    <glyph glyph-name="scircumflex" unicode="&#x15d;" horiz-adv-x="466" 
d="M207 -12q-31 0 -62 6.5t-59 20t-51 34t-38 49.5l116 82q8 -16 20.5 -27.5t27 -19t29.5 -11.5t28 -4q20 0 32 7t12 20q0 14 -12 22t-42 19l-31 11q-55 20 -83.5 58.5t-28.5 86.5q0 41 15 72.5t41.5 53t62.5 32.5t78 11q57 0 106.5 -26t74.5 -76l-109 -70q-16 27 -37 37
t-39 10q-17 0 -29 -7t-12 -22q0 -8 6.5 -17t28.5 -17l42 -15q56 -20 87.5 -54.5t31.5 -87.5q0 -46 -17.5 -79.5t-46 -55.5t-65.5 -32.5t-77 -10.5zM273 730h126l95 -152h-122l-48 61l-74 -61h-136z" />
    <glyph glyph-name="uni0219" unicode="&#x219;" horiz-adv-x="466" 
d="M207 -12q-31 0 -62 6.5t-59 20t-51 34t-38 49.5l116 82q8 -16 20.5 -27.5t27 -19t29.5 -11.5t28 -4q20 0 32 7t12 20q0 14 -12 22t-42 19l-31 11q-55 20 -83.5 58.5t-28.5 86.5q0 41 15 72.5t41.5 53t62.5 32.5t78 11q57 0 106.5 -26t74.5 -76l-109 -70q-16 27 -37 37
t-39 10q-17 0 -29 -7t-12 -22q0 -8 6.5 -17t28.5 -17l42 -15q56 -20 87.5 -54.5t31.5 -87.5q0 -46 -17.5 -79.5t-46 -55.5t-65.5 -32.5t-77 -10.5zM91 -335l59 117h-57l29 139h141l-29 -139l-75 -117h-68z" />
    <glyph glyph-name="tcaron" unicode="&#x165;" horiz-adv-x="474" 
d="M298 -6q-47 0 -83.5 15.5t-60 44.5t-31.5 71.5t3 96.5l31 147h-120l28 131h120l32 152h151l-32 -152h150l-28 -131h-150l-33 -156q-10 -47 9 -64.5t56 -17.5q17 0 33.5 4.5t29.5 11.5l19 -129q-20 -10 -51 -17t-73 -7zM417 710h151l-103 -160h-102z" />
    <glyph glyph-name="uni0163" unicode="&#x163;" horiz-adv-x="474" 
d="M298 -6q-47 0 -83.5 15.5t-60 44.5t-31.5 71.5t3 96.5l31 147h-120l28 131h120l32 152h151l-32 -152h150l-28 -131h-150l-33 -156q-10 -47 9 -64.5t56 -17.5q17 0 33.5 4.5t29.5 11.5l19 -129q-20 -10 -51 -17t-73 -7zM153 -335l59 117h-57l29 139h141l-29 -139l-75 -117
h-68z" />
    <glyph glyph-name="uni021B" unicode="&#x21b;" horiz-adv-x="474" 
d="M298 -6q-47 0 -83.5 15.5t-60 44.5t-31.5 71.5t3 96.5l31 147h-120l28 131h120l32 152h151l-32 -152h150l-28 -131h-150l-33 -156q-10 -47 9 -64.5t56 -17.5q17 0 33.5 4.5t29.5 11.5l19 -129q-20 -10 -51 -17t-73 -7zM153 -335l59 117h-57l29 139h141l-29 -139l-75 -117
h-68z" />
    <glyph glyph-name="ubreve" unicode="&#x16d;" horiz-adv-x="588" 
d="M201 -8q-37 0 -70 17t-54.5 49t-29.5 78t4 105l55 259h151l-55 -259q-11 -54 4 -82.5t59 -28.5q26 0 51.5 13t45.5 45l66 312h151l-106 -500h-149l7 40q-26 -23 -58 -35.5t-72 -12.5zM372 545q-39 0 -71 14t-54.5 38.5t-32 58.5t-3.5 74h86q-3 -28 2.5 -47t17 -30.5
t27.5 -16.5t34 -5t34.5 6t30.5 18t24 30.5t14 44.5h86q-1 -41 -15.5 -74.5t-40.5 -58.5t-61.5 -38.5t-77.5 -13.5z" />
    <glyph glyph-name="uhungarumlaut" unicode="&#x171;" horiz-adv-x="588" 
d="M201 -8q-37 0 -70 17t-54.5 49t-29.5 78t4 105l55 259h151l-55 -259q-11 -54 4 -82.5t59 -28.5q26 0 51.5 13t45.5 45l66 312h151l-106 -500h-149l7 40q-26 -23 -58 -35.5t-72 -12.5zM288 730h163l-146 -174h-106zM480 730h163l-146 -174h-106z" />
    <glyph glyph-name="umacron" unicode="&#x16b;" horiz-adv-x="588" 
d="M201 -8q-37 0 -70 17t-54.5 49t-29.5 78t4 105l55 259h151l-55 -259q-11 -54 4 -82.5t59 -28.5q26 0 51.5 13t45.5 45l66 312h151l-106 -500h-149l7 40q-26 -23 -58 -35.5t-72 -12.5zM213 710h348l-22 -104h-348z" />
    <glyph glyph-name="uogonek" unicode="&#x173;" horiz-adv-x="588" 
d="M201 -8q-37 0 -70 17t-54.5 49t-29.5 78t4 105l55 259h151l-55 -259q-11 -54 4 -82.5t59 -28.5q26 0 51.5 13t45.5 45l66 312h151l-106 -500h-149l7 40q-26 -23 -58 -35.5t-72 -12.5zM347 -204q-46 0 -77 22.5t-31 60.5q0 71 83 121h151q-50 -20 -73 -40t-23 -39
q0 -14 8 -18t16 -4q12 0 28 8l24 -83q-25 -14 -53.5 -21t-52.5 -7z" />
    <glyph glyph-name="uring" unicode="&#x16f;" horiz-adv-x="588" 
d="M201 -8q-37 0 -70 17t-54.5 49t-29.5 78t4 105l55 259h151l-55 -259q-11 -54 4 -82.5t59 -28.5q26 0 51.5 13t45.5 45l66 312h151l-106 -500h-149l7 40q-26 -23 -58 -35.5t-72 -12.5zM377 543q-25 0 -47 9.5t-38.5 26t-26.5 38t-10 46.5t10 46.5t26.5 38t38.5 26t47 9.5
t47 -9.5t38.5 -26t26.5 -38t10 -46.5t-10 -46.5t-26.5 -38t-38.5 -26t-47 -9.5zM377 608q23 0 39.5 16t16.5 39t-16.5 39t-39.5 16t-39.5 -16t-16.5 -39t16.5 -39t39.5 -16z" />
    <glyph glyph-name="utilde" unicode="&#x169;" horiz-adv-x="588" 
d="M201 -8q-37 0 -70 17t-54.5 49t-29.5 78t4 105l55 259h151l-55 -259q-11 -54 4 -82.5t59 -28.5q26 0 51.5 13t45.5 45l66 312h151l-106 -500h-149l7 40q-26 -23 -58 -35.5t-72 -12.5zM579 711l-8 -28q-17 -59 -52.5 -88t-84.5 -29q-24 0 -42.5 7.5t-33.5 16t-28 16
t-26 7.5q-20 0 -32 -12.5t-21 -35.5h-88l8 28q17 59 52.5 88t84.5 29q24 0 42.5 -7.5t33.5 -16t28 -16t26 -7.5q20 0 32 12.5t21 35.5h88z" />
    <glyph glyph-name="uni1EE5" unicode="&#x1ee5;" horiz-adv-x="588" 
d="M201 -8q-37 0 -70 17t-54.5 49t-29.5 78t4 105l55 259h151l-55 -259q-11 -54 4 -82.5t59 -28.5q26 0 51.5 13t45.5 45l66 312h151l-106 -500h-149l7 40q-26 -23 -58 -35.5t-72 -12.5zM232 -228q-34 0 -57.5 23.5t-23.5 56.5t23.5 56.5t57.5 23.5q33 0 56.5 -23.5
t23.5 -56.5t-23.5 -56.5t-56.5 -23.5z" />
    <glyph glyph-name="wacute" unicode="&#x1e83;" horiz-adv-x="809" 
d="M55 500h153l22 -313l169 313h116l25 -304l151 304h168l-270 -500h-152l-25 263l-146 -263h-152zM525 730h179l-178 -174h-118z" />
    <glyph glyph-name="wcircumflex" unicode="&#x175;" horiz-adv-x="809" 
d="M55 500h153l22 -313l169 313h116l25 -304l151 304h168l-270 -500h-152l-25 263l-146 -263h-152zM443 730h126l95 -152h-122l-48 61l-74 -61h-136z" />
    <glyph glyph-name="wdieresis" unicode="&#x1e85;" horiz-adv-x="809" 
d="M55 500h153l22 -313l169 313h116l25 -304l151 304h168l-270 -500h-152l-25 263l-146 -263h-152zM369 562q-17 0 -31.5 6.5t-25.5 17t-17.5 25t-6.5 30.5q0 34 23.5 57.5t57.5 23.5q16 0 30.5 -6.5t25 -17.5t17 -25.5t6.5 -31.5q0 -32 -23.5 -55.5t-55.5 -23.5zM606 562
q-33 0 -56.5 23.5t-23.5 55.5q0 34 23.5 57.5t56.5 23.5t56.5 -23.5t23.5 -57.5q0 -32 -23.5 -55.5t-56.5 -23.5z" />
    <glyph glyph-name="wgrave" unicode="&#x1e81;" horiz-adv-x="809" 
d="M55 500h153l22 -313l169 313h116l25 -304l151 304h168l-270 -500h-152l-25 263l-146 -263h-152zM427 556l-111 174h168l43 -174h-100z" />
    <glyph glyph-name="ycircumflex" unicode="&#x177;" horiz-adv-x="574" 
d="M159 31l-107 469h149l62 -315l196 315h171l-452 -694h-166zM316 730h126l95 -152h-122l-48 61l-74 -61h-136z" />
    <glyph glyph-name="ygrave" unicode="&#x1ef3;" horiz-adv-x="574" 
d="M159 31l-107 469h149l62 -315l196 315h171l-452 -694h-166zM300 556l-111 174h168l43 -174h-100z" />
    <glyph glyph-name="uni0233" unicode="&#x233;" horiz-adv-x="574" 
d="M159 31l-107 469h149l62 -315l196 315h171l-452 -694h-166zM201 710h348l-22 -104h-348z" />
    <glyph glyph-name="zacute" unicode="&#x17a;" horiz-adv-x="502" 
d="M13 118l264 246h-209l29 136h412l-25 -119l-263 -245h219l-29 -136h-423zM371 730h179l-178 -174h-118z" />
    <glyph glyph-name="zcaron" unicode="&#x17e;" horiz-adv-x="502" 
d="M13 118l264 246h-209l29 136h412l-25 -119l-263 -245h219l-29 -136h-423zM383 578h-126l-95 152h122l48 -61l74 61h136z" />
    <glyph glyph-name="zdotaccent" unicode="&#x17c;" horiz-adv-x="502" 
d="M13 118l264 246h-209l29 136h412l-25 -119l-263 -245h219l-29 -136h-423zM334 562q-17 0 -31.5 6.5t-25.5 17t-17.5 25t-6.5 30.5q0 34 23.5 57.5t57.5 23.5q33 0 56.5 -23.5t23.5 -57.5q0 -32 -23.5 -55.5t-56.5 -23.5z" />
    <glyph glyph-name="ellipsis" unicode="&#x2026;" horiz-adv-x="837" 
d="M1 0l38 179h179l-38 -179h-179zM279 0l38 179h179l-38 -179h-179zM558 0l38 179h179l-38 -179h-179z" />
    <glyph glyph-name="endash" unicode="&#x2013;" horiz-adv-x="594" 
d="M75 352h483l-31 -144h-483z" />
    <glyph glyph-name="emdash" unicode="&#x2014;" horiz-adv-x="950" 
d="M75 352h839l-31 -144h-839z" />
    <glyph glyph-name="guilsinglleft" unicode="&#x2039;" horiz-adv-x="317" 
d="M225 70l-95 -54l-102 234l201 234l88 -64l-139 -182z" />
    <glyph glyph-name="guilsinglright" unicode="&#x203a;" horiz-adv-x="317" 
d="M88 432l95 54l102 -234l-201 -234l-88 64l139 182z" />
    <glyph glyph-name="quoteleft" unicode="&#x2018;" horiz-adv-x="276" 
d="M221 540h65l-38 -179h-179l38 179l107 170h88z" />
    <glyph glyph-name="quoteright" unicode="&#x2019;" horiz-adv-x="265" 
d="M167 531h-65l38 179h179l-38 -179l-107 -170h-88z" />
    <glyph glyph-name="quotedblleft" unicode="&#x201c;" horiz-adv-x="518" 
d="M221 540h65l-38 -179h-179l38 179l107 170h88zM463 540h65l-38 -179h-179l38 179l107 170h88z" />
    <glyph glyph-name="quotedblright" unicode="&#x201d;" horiz-adv-x="507" 
d="M167 531h-65l38 179h179l-38 -179l-107 -170h-88zM409 531h-65l38 179h179l-38 -179l-107 -170h-88z" />
    <glyph glyph-name="quotesinglbase" unicode="&#x201a;" horiz-adv-x="289" 
d="M70 0h-65l38 179h179l-38 -179l-107 -170h-88z" />
    <glyph glyph-name="quotedblbase" unicode="&#x201e;" horiz-adv-x="531" 
d="M70 0h-65l38 179h179l-38 -179l-107 -170h-88zM312 0h-65l38 179h179l-38 -179l-107 -170h-88z" />
    <glyph glyph-name="bullet" unicode="&#x2022;" horiz-adv-x="395" 
d="M205 166q-28 0 -52.5 10.5t-43 29t-29.5 43.5t-11 53t11 53t29.5 43.5t43 29t52.5 10.5t53 -10.5t43.5 -29t29.5 -43.5t11 -53t-11 -53t-29.5 -43.5t-43.5 -29t-53 -10.5z" />
    <glyph glyph-name="minus" unicode="&#x2212;" horiz-adv-x="563" 
d="M77 355h420v-131h-420v131z" />
    <glyph glyph-name="Euro" unicode="&#x20ac;" horiz-adv-x="779" 
d="M29 265l32 57h56v13q0 27 3 54h-65l32 57h45q18 61 53.5 111.5t85.5 87t112 57t131 20.5q48 0 92 -10.5t82.5 -30.5t69 -48t50.5 -64l-116 -91q-26 44 -71.5 69.5t-108.5 25.5q-77 0 -133.5 -35.5t-84.5 -91.5h363l-30 -57h-352q-4 -20 -4 -44v-23h321l-30 -57h-281
q17 -60 62 -93.5t121 -33.5q50 0 92 18t74 44l79 -124q-51 -45 -118.5 -66.5t-139.5 -21.5q-68 0 -124 21t-98 58t-69 87.5t-37 110.5h-94z" />
    <glyph glyph-name="uniFB01" unicode="&#xfb01;" horiz-adv-x="738" 
d="M683 548q-19 0 -36 7.5t-30 20t-20.5 29.5t-7.5 37q0 19 7.5 36.5t20.5 30t30 20t36 7.5q20 0 37.5 -7.5t30 -20t20 -30t7.5 -36.5q0 -20 -7.5 -37t-20 -29.5t-30 -20t-37.5 -7.5zM578 500h151l-106 -500h-151zM158 369h-120l28 131h120l12 57q17 83 72 131t159 48
q52 0 86 -14.5t51 -25.5l-78 -117q-8 6 -24 13.5t-39 7.5q-29 0 -50 -14.5t-29 -46.5l-9 -39h167l-28 -131h-167l-78 -369h-151z" />
    <glyph glyph-name="uniFB02" unicode="&#xfb02;" horiz-adv-x="738" 
d="M158 369h-120l28 131h120l12 57q17 83 72 131t159 48q52 0 86 -14.5t51 -25.5l-78 -117q-8 6 -24 13.5t-39 7.5q-29 0 -50 -14.5t-29 -46.5l-9 -39h167l-28 -131h-167l-78 -369h-151zM627 730h151l-155 -730h-151z" />
    <glyph glyph-name="glyph328" 
d="M136 548q-19 0 -36 7.5t-30 20t-20.5 29.5t-7.5 37q0 19 7.5 36.5t20.5 30t30 20t36 7.5q20 0 37.5 -7.5t30 -20t20 -30t7.5 -36.5q0 -20 -7.5 -37t-20 -29.5t-30 -20t-37.5 -7.5z" />
    <glyph glyph-name="breve" unicode="&#x2d8;" 
d="M136 545q-39 0 -71 14t-54.5 38.5t-32 58.5t-3.5 74h86q-3 -28 2.5 -47t17 -30.5t27.5 -16.5t34 -5t34.5 6t30.5 18t24 30.5t14 44.5h86q-1 -41 -15.5 -74.5t-40.5 -58.5t-61.5 -38.5t-77.5 -13.5z" />
    <glyph glyph-name="caron" unicode="&#x2c7;" 
d="M186 578h-126l-95 152h122l48 -61l74 61h136z" />
    <glyph glyph-name="circumflex" unicode="&#x2c6;" 
d="M92 730h126l95 -152h-122l-48 61l-74 -61h-136z" />
    <glyph glyph-name="dotaccent" unicode="&#x2d9;" 
d="M137 562q-17 0 -31.5 6.5t-25.5 17t-17.5 25t-6.5 30.5q0 34 23.5 57.5t57.5 23.5q33 0 56.5 -23.5t23.5 -57.5q0 -32 -23.5 -55.5t-56.5 -23.5z" />
    <glyph glyph-name="glyph333" 
d="M0 -80q-34 0 -57.5 23.5t-23.5 56.5q0 34 23.5 57.5t57.5 23.5q33 0 56.5 -23.5t23.5 -57.5q0 -33 -23.5 -56.5t-56.5 -23.5z" />
    <glyph glyph-name="glyph334" 
d="M-31 -228q-34 0 -57.5 23.5t-23.5 56.5t23.5 56.5t57.5 23.5q33 0 56.5 -23.5t23.5 -56.5t-23.5 -56.5t-56.5 -23.5z" />
    <glyph glyph-name="hungarumlaut" unicode="&#x2dd;" 
d="M4 730h163l-146 -174h-106zM196 730h163l-146 -174h-106z" />
    <glyph glyph-name="glyph336" 
d="M-119 -335l59 117h-57l29 139h141l-29 -139l-75 -117h-68z" />
    <glyph glyph-name="ogonek" unicode="&#x2db;" 
d="M-29 -204q-46 0 -77 22.5t-31 60.5q0 71 83 121h151q-50 -20 -73 -40t-23 -39q0 -14 8 -18t16 -4q12 0 28 8l24 -83q-25 -14 -53.5 -21t-52.5 -7z" />
    <glyph glyph-name="ring" unicode="&#x2da;" 
d="M141 543q-25 0 -47 9.5t-38.5 26t-26.5 38t-10 46.5t10 46.5t26.5 38t38.5 26t47 9.5t47 -9.5t38.5 -26t26.5 -38t10 -46.5t-10 -46.5t-26.5 -38t-38.5 -26t-47 -9.5zM141 608q23 0 39.5 16t16.5 39t-16.5 39t-39.5 16t-39.5 -16t-16.5 -39t16.5 -39t39.5 -16z" />
    <glyph glyph-name="tilde" unicode="&#x2dc;" 
d="M343 711l-8 -28q-17 -59 -52.5 -88t-84.5 -29q-24 0 -42.5 7.5t-33.5 16t-28 16t-26 7.5q-20 0 -32 -12.5t-21 -35.5h-88l8 28q17 59 52.5 88t84.5 29q24 0 42.5 -7.5t33.5 -16t28 -16t26 -7.5q20 0 32 12.5t21 35.5h88z" />
    <glyph glyph-name="glyph340" 
d="M86 710h151l-103 -160h-102z" />
    <glyph glyph-name="glyph341" 
d="M224 828l-59 -117h57l-29 -139h-141l29 139l75 117h68z" />
    <glyph glyph-name="glyph342" 
d="M45 572q-33 0 -56.5 23.5t-23.5 55.5q0 33 23.5 56.5t56.5 23.5q32 0 55.5 -23.5t23.5 -56.5q0 -32 -23.5 -55.5t-55.5 -23.5zM232 572q-32 0 -55.5 23.5t-23.5 55.5q0 33 23.5 56.5t55.5 23.5q33 0 56.5 -23.5t23.5 -56.5q0 -32 -23.5 -55.5t-56.5 -23.5z" />
    <glyph glyph-name="glyph343" 
d="M-216 -11l-43 52l582 470l43 -52z" />
    <glyph glyph-name="glyph344" 
d="M-31 660h343l-20 -96h-343z" />
    <glyph glyph-name="glyph345" 
d="M-31 660h343l-20 -96h-343z" />
    <glyph glyph-name="glyph346" 
d="M-100 227l26 123l334 171l-27 -124z" />
    <glyph glyph-name="glyph347" 
d="M141 905h172l-153 -137h-118z" />
    <glyph glyph-name="glyph348" 
d="M179 747q-37 0 -69.5 12.5t-55.5 36t-33.5 57t-1.5 74.5h83q-8 -50 15.5 -72.5t65.5 -22.5t69 24t37 71h86q-11 -85 -63.5 -132.5t-132.5 -47.5z" />
    <glyph glyph-name="glyph349" 
d="M232 768h-138l-85 137h128l40 -50l62 50h136z" />
    <glyph glyph-name="glyph350" 
d="M-133 -128q29 -13 66 -13q8 0 18 1.5t18.5 5.5t14 10t5.5 15q0 11 -9 15t-19 4q-13 0 -24.5 -3.5t-20.5 -8.5l-32 19l68 86h66l-37 -47q8 5 21.5 8.5t27.5 3.5q29 0 48 -17.5t19 -43.5q0 -48 -41 -79.5t-118 -31.5q-23 0 -48.5 3t-48.5 13z" />
    <glyph glyph-name="glyph351" 
d="M123 905h138l85 -137h-128l-40 50l-62 -50h-136z" />
    <glyph glyph-name="glyph352" 
d="M62 768q-17 0 -31.5 6.5t-25.5 17.5t-17.5 25.5t-6.5 30.5q0 34 23.5 57.5t57.5 23.5q16 0 30.5 -6.5t25 -17.5t17 -25.5t6.5 -31.5q0 -16 -6.5 -30.5t-17 -25.5t-25 -17.5t-30.5 -6.5zM299 768q-17 0 -31.5 6.5t-25 17.5t-17 25.5t-6.5 30.5q0 34 23.5 57.5t56.5 23.5
t56.5 -23.5t23.5 -57.5q0 -16 -6.5 -30.5t-17 -25.5t-25.5 -17.5t-31 -6.5z" />
    <glyph glyph-name="glyph353" 
d="M181 768q-17 0 -31.5 6.5t-25.5 17.5t-17.5 25.5t-6.5 30.5q0 34 23.5 57.5t57.5 23.5q33 0 56.5 -23.5t23.5 -57.5q0 -16 -6.5 -30.5t-17 -25.5t-25.5 -17.5t-31 -6.5z" />
    <glyph glyph-name="glyph354" 
d="M0 -80q-34 0 -57.5 23.5t-23.5 56.5q0 34 23.5 57.5t57.5 23.5q33 0 56.5 -23.5t23.5 -57.5q0 -33 -23.5 -56.5t-56.5 -23.5z" />
    <glyph glyph-name="glyph355" 
d="M-30 -227q-34 0 -57.5 23.5t-23.5 56.5t23.5 56.5t57.5 23.5q33 0 56.5 -23.5t23.5 -56.5t-23.5 -56.5t-56.5 -23.5z" />
    <glyph glyph-name="glyph356" 
d="M167 768l-94 137h168l41 -137h-115z" />
    <glyph glyph-name="glyph357" 
d="M42 905h162l-140 -137h-103zM232 905h162l-140 -137h-103z" />
    <glyph glyph-name="glyph358" 
d="M15 891h348l-22 -104h-348z" />
    <glyph glyph-name="glyph359" 
d="M-24 -204q-49 0 -82.5 22t-33.5 68q0 32 21.5 59t59.5 55h159q-50 -20 -72.5 -38.5t-22.5 -35.5q0 -11 6.5 -16t16.5 -5q11 0 26 6l27 -91q-19 -11 -47.5 -17.5t-57.5 -6.5z" />
    <glyph glyph-name="glyph360" 
d="M185 753q-25 0 -47 9.5t-38.5 26t-26.5 38t-10 46.5t10 46.5t26.5 38t38.5 26t47 9.5t47 -9.5t38.5 -26t26.5 -38t10 -46.5t-10 -46.5t-26.5 -38t-38.5 -26t-47 -9.5zM185 818q23 0 39.5 16t16.5 39t-16.5 39t-39.5 16t-39.5 -16t-16.5 -39t16.5 -39t39.5 -16z" />
    <glyph glyph-name="glyph361" 
d="M-22 804q6 30 21 52t34 36.5t39.5 21.5t38.5 7q24 0 43 -7.5t36 -16t31.5 -16t29.5 -7.5q20 0 33 12t21 36h83l-6 -28q-7 -30 -22 -52t-33.5 -36.5t-39 -21.5t-38.5 -7q-24 0 -43.5 7.5t-36 16t-31.5 16t-29 7.5q-21 0 -34 -12t-21 -36h-82z" />
    <glyph glyph-name="glyph362" 
d="M-85 427h351l-29 -138h-351z" />
    <glyph glyph-name="glyph363" 
d="M-288 -18l-75 93l802 653l75 -93z" />
    <glyph glyph-name="glyph364" 
d="M-135 213l27 129l403 201l-27 -129z" />
    <glyph glyph-name="glyph365" 
d="M-242 623h748l-23 -108h-748z" />
    </font>
</defs>
</svg>
