<?xml version="1.0" standalone="no"?>
<!DOCTYPE svg PUBLIC "-//W3C//DTD SVG 1.1//EN" "http://www.w3.org/Graphics/SVG/1.1/DTD/svg11.dtd" >
<svg xmlns="http://www.w3.org/2000/svg" xmlns:xlink="http://www.w3.org/1999/xlink" version="1.1">
<metadata>
Created by Christoph Koeberlin (http://christoph.koe.berlin)
Copyright (c) 2018 Swiss Typefaces Sarl. All rights reserved.
</metadata>
<defs>
<font id="Font" horiz-adv-x="0" >
  <font-face 
    font-family="Font"
    font-weight="700"
    font-stretch="normal"
    units-per-em="1000"
    panose-1="2 11 8 4 0 0 0 0 0 0"
    ascent="800"
    descent="-200"
    x-height="500"
    cap-height="710"
    bbox="-374 -335 1058 993"
    underline-thickness="100"
    underline-position="-184"
    unicode-range="U+0020-FB02"
  />
<missing-glyph horiz-adv-x="634" 
d="M67 710h500v-710h-500v710zM86 682v-654l220 327zM548 28v654l-221 -327zM101 691l216 -321l216 321h-432zM101 19h432l-216 320z" />
    <glyph glyph-name=".notdef" horiz-adv-x="634" 
d="M67 710h500v-710h-500v710zM86 682v-654l220 327zM548 28v654l-221 -327zM101 691l216 -321l216 321h-432zM101 19h432l-216 320z" />
    <glyph glyph-name="glyph1" 
 />
    <glyph glyph-name="glyph2" horiz-adv-x="225" 
 />
    <glyph glyph-name="space" unicode=" " horiz-adv-x="225" 
 />
    <glyph glyph-name="exclam" unicode="!" horiz-adv-x="296" 
d="M72 449v261h152v-261l-30 -184h-93zM59 0v179h179v-179h-179z" />
    <glyph glyph-name="quotedbl" unicode="&#x22;" horiz-adv-x="440" 
d="M56 710h126v-298h-126v298zM258 710h126v-298h-126v298z" />
    <glyph glyph-name="numbersign" unicode="#" horiz-adv-x="723" 
d="M374 181h-132l-57 -181h-127l56 181h-83v114h120l36 120h-83v114h119l56 181h129l-57 -181h131l56 181h129l-57 -181h82v-114h-118l-37 -120h83v-114h-119l-57 -181h-127zM278 295h132l36 120h-131z" />
    <glyph glyph-name="dollar" unicode="$" horiz-adv-x="562" 
d="M262 -10q-36 2 -70.5 10.5t-65 22t-55.5 32.5t-42 42l98 106q27 -34 63.5 -50.5t71.5 -19.5v155l-37 13q-35 12 -66 31t-54 45.5t-36.5 60t-13.5 75.5q0 43 15 79.5t42.5 63.5t65.5 43.5t84 20.5v78h54v-77q32 -3 61.5 -12t55 -23.5t45 -32.5t31.5 -38l-105 -95
q-38 47 -88 56v-143l47 -17q77 -28 119 -78.5t42 -139.5q0 -91 -56 -145t-152 -62v-79h-54v78zM373 198q0 23 -14.5 39.5t-42.5 30.5v-133q26 6 41.5 22t15.5 41zM206 519q0 -25 14.5 -40t41.5 -26v123q-23 -5 -39.5 -19t-16.5 -38z" />
    <glyph glyph-name="percent" unicode="%" horiz-adv-x="977" 
d="M186 0l450 710h155l-450 -710h-155zM753 -8q-41 0 -77 15.5t-62.5 42.5t-42 62.5t-15.5 76.5t15.5 77t42 62.5t62.5 42t77 15.5q40 0 76 -15.5t63 -42t42.5 -62.5t15.5 -77t-15.5 -76.5t-42.5 -62.5t-63 -42.5t-76 -15.5zM753 118q29 0 49 21t20 50t-20 50t-49 21
t-49.5 -21t-20.5 -50t20.5 -50t49.5 -21zM224 324q-41 0 -77 15.5t-62.5 42.5t-42 62.5t-15.5 76.5t15.5 77t42 62.5t62.5 42t77 15.5q40 0 76 -15.5t63 -42t42.5 -62.5t15.5 -77t-15.5 -76.5t-42.5 -62.5t-63 -42.5t-76 -15.5zM224 450q29 0 49 21t20 50t-20 50t-49 21
q-30 0 -50 -21t-20 -50t20 -50t50 -21z" />
    <glyph glyph-name="ampersand" unicode="&#x26;" horiz-adv-x="767" 
d="M302 -11q-61 0 -106.5 17t-75.5 46.5t-44.5 68.5t-14.5 83q0 34 9 61.5t24.5 50.5t37 41.5t46.5 35.5q-29 29 -51 64.5t-22 81.5q0 36 15 69t42.5 58.5t65.5 40.5t83 15q46 0 84 -15.5t64.5 -41t41 -57.5t14.5 -66q0 -32 -8.5 -57t-24 -45.5t-37 -36.5t-47.5 -31
l107 -103l104 123l105 -90l-110 -128l181 -174h-198l-78 74q-51 -45 -99 -65t-108 -20zM300 121q26 0 54 10.5t58 36.5l-135 130q-41 -28 -55 -54t-14 -45q0 -21 8.5 -36t22 -24.5t30 -13.5t31.5 -4zM249 539q0 -24 16.5 -41.5t41.5 -39.5l1 1q32 17 45.5 32.5t13.5 44.5
q0 28 -17.5 43.5t-40.5 15.5q-24 0 -42 -15t-18 -41z" />
    <glyph glyph-name="quotesingle" unicode="'" horiz-adv-x="238" 
d="M56 710h126v-298h-126v298z" />
    <glyph glyph-name="parenleft" unicode="(" horiz-adv-x="288" 
d="M163 320q0 -112 23.5 -216.5t75.5 -215.5l-97 -48q-128 232 -128 480t128 480l97 -48q-52 -111 -75.5 -215.5t-23.5 -216.5z" />
    <glyph glyph-name="parenright" unicode=")" horiz-adv-x="288" 
d="M125 320q0 112 -23.5 216.5t-75.5 215.5l97 48q128 -232 128 -480t-128 -480l-97 48q52 111 75.5 215.5t23.5 216.5z" />
    <glyph glyph-name="asterisk" unicode="*" horiz-adv-x="506" 
d="M82 344l88 119l-141 46l31 98l143 -45v148h102v-148l141 46l32 -98l-142 -47l89 -119l-83 -60l-87 118l-90 -118z" />
    <glyph glyph-name="plus" unicode="+" horiz-adv-x="490" 
d="M35 355h145v145h130v-145h145v-131h-145v-145h-130v145h-145v131z" />
    <glyph glyph-name="comma" unicode="," horiz-adv-x="289" 
d="M127 0h-72v179h179v-179l-71 -170h-84z" />
    <glyph glyph-name="hyphen" unicode="-" horiz-adv-x="404" 
d="M55 352h294v-144h-294v144z" />
    <glyph glyph-name="period" unicode="." horiz-adv-x="289" 
d="M55 0v179h179v-179h-179z" />
    <glyph glyph-name="slash" unicode="/" horiz-adv-x="556" 
d="M403 710h136l-386 -820h-136z" />
    <glyph glyph-name="zero" unicode="0" horiz-adv-x="633" 
d="M317 -11q-60 0 -109.5 21.5t-85 59t-55 89.5t-19.5 114v165q0 61 19.5 113.5t55 90t85 59t109.5 21.5q59 0 108.5 -21.5t85 -59t55 -90t19.5 -113.5v-165q0 -62 -19.5 -114t-55 -89.5t-85 -59t-108.5 -21.5zM317 138q52 0 84.5 35.5t32.5 99.5v165q0 64 -32.5 99.5
t-84.5 35.5q-53 0 -85.5 -35.5t-32.5 -99.5v-165q0 -64 32.5 -99.5t85.5 -35.5z" />
    <glyph glyph-name="one" unicode="1" horiz-adv-x="376" 
d="M150 561h-131v149h282v-710h-151v561z" />
    <glyph glyph-name="two" unicode="2" horiz-adv-x="577" 
d="M41 133l277 268q23 23 38.5 45.5t15.5 52.5q0 29 -21.5 51.5t-60.5 22.5q-40 0 -68 -28t-40 -66l-146 36q12 49 36 88t57.5 65t76 40t91.5 14q45 0 86 -13t72 -40t49 -67.5t18 -94.5q0 -39 -8.5 -70t-24 -57.5t-36.5 -50.5t-46 -48l-137 -132h259v-149h-488v133z" />
    <glyph glyph-name="three" unicode="3" horiz-adv-x="569" 
d="M277 -12q-43 0 -85 13t-77.5 36.5t-61.5 57t-37 75.5l145 57q14 -39 44.5 -64.5t75.5 -25.5q51 0 74 25t23 61q0 43 -30.5 68.5t-78.5 25.5h-94v124l120 123h-226v146h427v-118l-146 -150q45 -6 78.5 -25.5t56 -48.5t33.5 -66t11 -79q0 -54 -18 -97.5t-51 -74t-79.5 -47
t-103.5 -16.5z" />
    <glyph glyph-name="four" unicode="4" horiz-adv-x="643" 
d="M365 154h-347v122l362 434h136v-418h91v-138h-91v-154h-151v154zM365 292v195l-163 -195h163z" />
    <glyph glyph-name="five" unicode="5" horiz-adv-x="588" 
d="M298 -11q-44 0 -86.5 13t-78 37t-61.5 57.5t-37 75.5l144 56q14 -39 44 -64.5t75 -25.5q51 0 76 28t25 70q0 40 -27.5 69t-70.5 29q-31 0 -55.5 -14.5t-34.5 -38.5h-142v429h432v-146h-281v-122q20 14 49.5 21t55.5 7q53 0 95 -18t71 -50.5t44 -77.5t15 -99
q0 -55 -18 -99t-51 -74.5t-79.5 -46.5t-103.5 -16z" />
    <glyph glyph-name="six" unicode="6" horiz-adv-x="572" 
d="M284 -11q-58 0 -104.5 19t-78.5 52t-49.5 78.5t-17.5 98.5q0 27 5 48.5t15.5 43.5t26.5 45.5t37 53.5l198 282h186l-174 -248q37 -3 73.5 -19t66 -44.5t48 -69.5t18.5 -93q0 -53 -17.5 -98t-49.5 -78t-78.5 -52t-104.5 -19zM284 134q43 0 70.5 29t27.5 71t-27.5 71
t-70.5 29q-44 0 -71 -29t-27 -71t27 -71t71 -29z" />
    <glyph glyph-name="seven" unicode="7" horiz-adv-x="552" 
d="M41 0l318 564h-324v146h503v-131l-326 -579h-171z" />
    <glyph glyph-name="eight" unicode="8" horiz-adv-x="592" 
d="M296 -11q-54 0 -101 17t-81.5 47.5t-54 72.5t-19.5 93q0 58 22 99.5t63 67.5q-57 54 -57 141q0 42 16 77.5t46 62t72 41t94 14.5t94 -14.5t72 -41t46 -62t16 -77.5q0 -43 -15 -79t-43 -62q41 -26 63.5 -67.5t22.5 -99.5q0 -51 -20 -93t-54.5 -72.5t-81 -47.5t-100.5 -17z
M296 128q24 0 42.5 8t31 21.5t19.5 30.5t7 35t-7 35t-19.5 30.5t-31 21.5t-42.5 8t-42.5 -8t-31.5 -21.5t-19.5 -30.5t-6.5 -35t6.5 -35t19.5 -30.5t31.5 -21.5t42.5 -8zM296 437q35 0 58.5 21.5t23.5 54.5t-23.5 54.5t-58.5 21.5t-58.5 -21.5t-23.5 -54.5t23.5 -54.5
t58.5 -21.5z" />
    <glyph glyph-name="nine" unicode="9" horiz-adv-x="572" 
d="M243 248q-37 3 -73.5 19t-66 44.5t-47.5 69.5t-18 94q0 52 17.5 97.5t49.5 78.5t78.5 52t104.5 19t104.5 -19t78.5 -52t49.5 -78.5t17.5 -98.5q0 -27 -5.5 -48.5t-16 -43.5t-26 -45.5t-36.5 -53.5l-199 -283h-186zM288 377q44 0 71 29t27 71t-27 71t-71 29
q-43 0 -70.5 -29t-27.5 -71t27.5 -71t70.5 -29z" />
    <glyph glyph-name="colon" unicode=":" horiz-adv-x="289" 
d="M55 311v179h179v-179h-179zM55 0v179h179v-179h-179z" />
    <glyph glyph-name="semicolon" unicode=";" horiz-adv-x="289" 
d="M55 311v179h179v-179h-179zM127 0h-72v179h179v-179l-71 -170h-84z" />
    <glyph glyph-name="equal" unicode="=" horiz-adv-x="536" 
d="M58 250h420v-130h-420v130zM58 459h420v-131h-420v131z" />
    <glyph glyph-name="question" unicode="?" horiz-adv-x="546" 
d="M176 282q0 45 21.5 75.5t63.5 59.5q16 11 32 20t28.5 19.5t20 23t7.5 30.5q0 31 -23 47t-53 16q-32 0 -68.5 -17t-62.5 -56l-119 82q15 26 40 51.5t57 45t71.5 31.5t84.5 12q49 0 90.5 -17t71 -45t46 -64.5t16.5 -76.5q0 -26 -3.5 -49t-13 -44t-26.5 -41t-43 -39
q-40 -30 -63.5 -47t-23.5 -35v-1h-151v19zM162 0v179h179v-179h-179z" />
    <glyph glyph-name="at" unicode="@" horiz-adv-x="800" 
d="M383 -11q-83 0 -147 27t-108.5 74.5t-67.5 111t-23 135.5q0 85 31.5 156t84.5 122t123.5 79t147.5 28q73 0 136 -22t109.5 -63t72.5 -99.5t26 -131.5q0 -65 -14.5 -112t-39.5 -77.5t-59 -45t-72 -14.5q-35 0 -64 14t-43 34q-22 -22 -53 -34t-69 -12t-67 14t-49 37.5
t-30.5 54.5t-10.5 66q0 45 15 84.5t42 69.5t63.5 47.5t78.5 17.5q39 0 65.5 -17.5t37.5 -38.5l9 46h105l-46 -216q-7 -33 -0.5 -56t35.5 -23q38 0 60 37t22 126q0 58 -21.5 102t-57.5 73t-83 43.5t-99 14.5q-58 0 -112 -20t-95 -59t-66 -95.5t-25 -129.5q0 -60 17 -109
t50 -84t81 -54.5t110 -19.5q49 0 94 10t86 32l32 -79q-47 -23 -102.5 -33.5t-109.5 -10.5zM377 257q26 0 45.5 11t32.5 30l24 109q-6 14 -25 29.5t-50 15.5q-35 0 -60 -24.5t-33 -62.5q-5 -22 -2 -41.5t11.5 -34.5t23 -23.5t33.5 -8.5z" />
    <glyph glyph-name="A" unicode="A" horiz-adv-x="750" 
d="M303 710h144l304 -710h-166l-63 150h-294l-63 -150h-166zM285 288h179l-89 213z" />
    <glyph glyph-name="B" unicode="B" horiz-adv-x="635" 
d="M75 710h267q43 0 81.5 -16.5t67.5 -45t45.5 -67t16.5 -82.5q0 -38 -14 -68.5t-37 -53.5q45 -23 73 -67t28 -101q0 -44 -16.5 -82t-45.5 -66.5t-68.5 -44.5t-85.5 -16h-312v710zM374 146q32 0 53 20.5t21 50.5q0 29 -21.5 50t-53.5 21h-139v-142h140zM324 423
q32 0 53 20.5t21 49.5t-21 50.5t-53 21.5h-90v-142h90z" />
    <glyph glyph-name="C" unicode="C" horiz-adv-x="752" 
d="M402 -12q-76 0 -143 29t-116.5 79t-78.5 116.5t-29 142.5t29 142.5t78.5 116.5t116.5 79t143 29q55 0 105.5 -14t93 -39.5t76.5 -61t57 -79.5l-140 -76q-30 54 -77.5 85t-114.5 31q-44 0 -81.5 -17t-65.5 -46.5t-44 -68t-16 -81.5t16 -81.5t44 -68t65.5 -46.5t81.5 -17
q67 0 114.5 31t77.5 85l140 -76q-23 -44 -57 -79.5t-76.5 -61t-93 -39.5t-105.5 -14z" />
    <glyph glyph-name="D" unicode="D" horiz-adv-x="715" 
d="M75 710h242q75 0 141 -28t115 -76t77.5 -112.5t28.5 -138.5t-28.5 -138.5t-77.5 -112.5t-115 -76t-141 -28h-242v710zM317 146q45 0 82 16.5t63.5 45t41 66.5t14.5 81t-14.5 81t-41 66.5t-63.5 45t-82 16.5h-83v-418h83z" />
    <glyph glyph-name="E" unicode="E" horiz-adv-x="571" 
d="M75 710h450v-152h-291v-127h231v-152h-231v-127h291v-152h-450v710z" />
    <glyph glyph-name="F" unicode="F" horiz-adv-x="545" 
d="M75 710h437v-152h-278v-128h217v-152h-217v-278h-159v710z" />
    <glyph glyph-name="G" unicode="G" horiz-adv-x="763" 
d="M422 -12q-83 0 -153.5 28t-122.5 77.5t-81 116.5t-29 145q0 76 27.5 142.5t77 116.5t118 79t151.5 29q95 0 167.5 -32t123.5 -89l-112 -109q-30 32 -74 54t-105 22q-48 0 -87.5 -17t-67.5 -46.5t-43.5 -68t-15.5 -81.5q0 -45 15.5 -84t44.5 -67.5t70.5 -45t93.5 -16.5
q42 0 78.5 8t59.5 26v105h-139v149h294v-337q-48 -54 -126 -79.5t-165 -25.5z" />
    <glyph glyph-name="H" unicode="H" horiz-adv-x="754" 
d="M75 710h159v-278h286v278h159v-710h-159v281h-286v-281h-159v710z" />
    <glyph glyph-name="I" unicode="I" horiz-adv-x="309" 
d="M75 710h159v-710h-159v710z" />
    <glyph glyph-name="J" unicode="J" horiz-adv-x="471" 
d="M177 -12q-34 0 -61.5 6t-49.5 15.5t-38.5 21.5t-28.5 23l88 118q39 -36 83 -36q29 0 50.5 16.5t21.5 51.5v506h159v-516q0 -54 -19 -93t-50.5 -64t-72 -37t-82.5 -12z" />
    <glyph glyph-name="K" unicode="K" horiz-adv-x="700" 
d="M233 318v-318h-158v710h158v-297l241 297h195l-280 -341l337 -369h-204z" />
    <glyph glyph-name="L" unicode="L" horiz-adv-x="552" 
d="M75 710h159v-558h294v-152h-453v710z" />
    <glyph glyph-name="M" unicode="M" horiz-adv-x="883" 
d="M75 710h145l221 -362l222 362h145v-710h-160v406l-154 -254h-104l-156 256v-408h-159v710z" />
    <glyph glyph-name="N" unicode="N" horiz-adv-x="792" 
d="M580 0l-346 439v-439h-159v710h137l345 -439v439h160v-710h-137z" />
    <glyph glyph-name="O" unicode="O" horiz-adv-x="804" 
d="M402 142q43 0 80.5 17t65.5 46.5t44 68t16 81.5t-16 81.5t-44 68t-65.5 46.5t-80.5 17q-44 0 -81.5 -17t-65.5 -46.5t-44 -68t-16 -81.5t16 -81.5t44 -68t65.5 -46.5t81.5 -17zM402 -12q-76 0 -143 29t-116.5 79t-78.5 116.5t-29 142.5t29 142.5t78.5 116.5t116.5 79
t143 29t142.5 -29t116.5 -79t79 -116.5t29 -142.5t-29 -142.5t-79 -116.5t-116.5 -79t-142.5 -29z" />
    <glyph glyph-name="P" unicode="P" horiz-adv-x="593" 
d="M566 467q0 -51 -19 -95.5t-52.5 -77t-79 -51t-99.5 -18.5h-82v-225h-159v710h241q54 0 99.5 -18.5t79 -51.5t52.5 -77.5t19 -95.5zM412 467q0 40 -27.5 66.5t-70.5 26.5h-80v-186h80q43 0 70.5 27t27.5 66z" />
    <glyph glyph-name="Q" unicode="Q" horiz-adv-x="814" 
d="M402 -12q-76 0 -143 29t-116.5 79t-78.5 116.5t-29 142.5t29 142.5t78.5 116.5t116.5 79t143 29t142.5 -29t116.5 -79t79 -116.5t29 -142.5q0 -52 -13.5 -99t-38.5 -89l79 -64l-90 -111l-85 69q-46 -35 -101.5 -54t-117.5 -19zM402 142q49 0 92 23l-101 82l90 110
l107 -87q8 20 13 41t5 44q0 43 -16 81.5t-44 68t-65.5 46.5t-80.5 17q-44 0 -81.5 -17t-65.5 -46.5t-44 -68t-16 -81.5t16 -81.5t44 -68t65.5 -46.5t81.5 -17z" />
    <glyph glyph-name="R" unicode="R" horiz-adv-x="662" 
d="M75 710h280q50 0 91 -17t69.5 -46t44 -68t15.5 -83q0 -69 -35.5 -114t-103.5 -69l251 -313h-191l-237 293h-25v-293h-159v710zM336 428q35 0 58 18.5t23 49.5q0 32 -23 50t-58 18h-102v-136h102z" />
    <glyph glyph-name="S" unicode="S" horiz-adv-x="574" 
d="M286 -12q-85 0 -153 33.5t-110 93.5l122 103q26 -38 67 -59.5t80 -21.5q40 0 63 16.5t23 42.5q0 27 -22.5 47t-76.5 38l-50 17q-87 29 -133 80.5t-46 124.5q0 52 18.5 92.5t51 68.5t77.5 43t98 15q65 0 122 -22t107 -76l-104 -110q-25 30 -57 44.5t-66 14.5
q-16 0 -31.5 -3t-27.5 -10t-19.5 -17t-7.5 -24q0 -29 26.5 -45.5t83.5 -36.5l50 -18q77 -28 123.5 -80t45.5 -132q0 -48 -19 -88.5t-52.5 -69.5t-80 -45t-102.5 -16z" />
    <glyph glyph-name="T" unicode="T" horiz-adv-x="568" 
d="M203 558h-181v152h524v-152h-183v-558h-160v558z" />
    <glyph glyph-name="U" unicode="U" horiz-adv-x="718" 
d="M359 -12q-64 0 -117.5 21t-92.5 59t-60.5 92.5t-21.5 120.5v429h159v-431q0 -64 36.5 -100.5t96.5 -36.5t96.5 36.5t36.5 100.5v431h159v-429q0 -66 -21.5 -120.5t-60.5 -92.5t-92.5 -59t-117.5 -21z" />
    <glyph glyph-name="V" unicode="V" horiz-adv-x="727" 
d="M1 710h173l189 -473l188 473h175l-291 -710h-143z" />
    <glyph glyph-name="W" unicode="W" horiz-adv-x="1026" 
d="M7 710h168l129 -452l138 452h140l138 -453l129 453h170l-221 -710h-144l-142 467l-141 -467h-143z" />
    <glyph glyph-name="X" unicode="X" horiz-adv-x="704" 
d="M-9 0l266 359l-250 351h184l161 -228l161 228h184l-249 -351l265 -359h-185l-176 235l-175 -235h-186z" />
    <glyph glyph-name="Y" unicode="Y" horiz-adv-x="694" 
d="M267 299l-259 411h185l153 -256l155 256h185l-259 -412v-298h-160v299z" />
    <glyph glyph-name="Z" unicode="Z" horiz-adv-x="626" 
d="M39 109l326 449h-321v152h537v-109l-327 -449h333v-152h-548v109z" />
    <glyph glyph-name="bracketleft" unicode="[" horiz-adv-x="331" 
d="M72 800h230v-108h-104v-744h104v-108h-230v960z" />
    <glyph glyph-name="bracketright" unicode="]" horiz-adv-x="331" 
d="M259 -160h-230v108h104v744h-104v108h230v-960z" />
    <glyph glyph-name="underscore" unicode="_" horiz-adv-x="511" 
d="M38 0h435v-114h-435v114z" />
    <glyph glyph-name="grave" unicode="`" 
d="M16 556l-143 174h173l80 -174h-110z" />
    <glyph glyph-name="a" unicode="a" horiz-adv-x="609" 
d="M278 -11q-56 0 -101 21t-77.5 57t-50 83.5t-17.5 99.5t17.5 99.5t50 83.5t77.5 57t101 21q38 0 68 -12t50 -30v31h151v-500h-151v32q-20 -19 -50 -31t-68 -12zM301 126q35 0 57 13.5t38 34.5v153q-16 20 -38 33.5t-57 13.5q-25 0 -46 -10t-36 -27t-23 -39.5t-8 -47.5
t8 -47.5t23 -39.5t36 -27t46 -10z" />
    <glyph glyph-name="b" unicode="b" horiz-adv-x="610" 
d="M331 -11q-38 0 -68 12t-50 31v-32h-151v730h151v-261q20 18 50 30t68 12q55 0 100.5 -21t78 -57t50 -83.5t17.5 -99.5t-17.5 -99.5t-50 -83.5t-78 -57t-100.5 -21zM308 126q25 0 46 10t36 27t23 39.5t8 47.5t-8 47.5t-23 39.5t-36 27t-46 10q-35 0 -57 -13.5t-38 -33.5
v-153q16 -21 38 -34.5t57 -13.5z" />
    <glyph glyph-name="c" unicode="c" horiz-adv-x="556" 
d="M298 -11q-55 0 -103.5 19.5t-84.5 54t-57 82.5t-21 105t21 105t57 82.5t84.5 54t103.5 19.5q39 0 75 -10.5t67 -30t56 -46t41 -59.5l-132 -70q-14 32 -41.5 53.5t-65.5 21.5q-24 0 -44.5 -9t-36 -24.5t-24.5 -37.5t-9 -49t9 -49t24.5 -37.5t36 -24.5t44.5 -9
q38 0 65.5 21.5t41.5 53.5l132 -70q-16 -33 -41 -59.5t-56 -46t-67 -30t-75 -10.5z" />
    <glyph glyph-name="d" unicode="d" horiz-adv-x="609" 
d="M278 -11q-56 0 -101 21t-77.5 57t-50 83.5t-17.5 99.5t17.5 99.5t50 83.5t77.5 57t101 21q38 0 68 -12t50 -30v261h151v-730h-151v32q-20 -19 -50 -31t-68 -12zM301 126q35 0 57 13.5t38 34.5v153q-16 20 -38 33.5t-57 13.5q-25 0 -46 -10t-36 -27t-23 -39.5t-8 -47.5
t8 -47.5t23 -39.5t36 -27t46 -10z" />
    <glyph glyph-name="e" unicode="e" horiz-adv-x="577" 
d="M298 -11q-55 0 -103.5 18t-84.5 52t-57 82.5t-21 108.5q0 56 19.5 103.5t55 82.5t83.5 55t105 20q49 0 94.5 -15.5t79.5 -46t54.5 -76t20.5 -106.5q0 -10 -0.5 -22.5t-2.5 -30.5h-363q7 -45 43 -66.5t79 -21.5q44 0 75.5 17.5t45.5 39.5l112 -84q-35 -50 -95.5 -80
t-139.5 -30zM394 313q-10 40 -40 57.5t-63 17.5q-17 0 -34 -4t-32 -13t-26.5 -23t-16.5 -35h212z" />
    <glyph glyph-name="f" unicode="f" horiz-adv-x="468" 
d="M136 369h-120v131h120v28q0 41 12.5 78.5t37.5 66.5t63 46t90 17q48 0 81 -10t53 -20l-55 -123q-11 6 -25 11.5t-34 5.5q-33 0 -52.5 -20t-19.5 -52v-28h167v-131h-167v-369h-151v369z" />
    <glyph glyph-name="g" unicode="g" horiz-adv-x="614" 
d="M286 -204q-57 0 -115.5 14.5t-103.5 49.5l79 113q32 -25 68 -35t70 -10q21 0 42 5.5t37.5 17.5t27 30.5t10.5 43.5v29q-20 -19 -50.5 -31t-69.5 -12q-54 0 -99.5 19.5t-79 53t-52 79t-18.5 98.5q0 52 19 98t52 79.5t78.5 53t99.5 19.5q39 0 69.5 -12t50.5 -30v31h151
v-473q0 -68 -24 -113t-62.5 -71t-86 -36.5t-93.5 -10.5zM306 148q35 0 57 13.5t38 34.5v131q-16 20 -38 33.5t-57 13.5q-51 0 -84.5 -31t-33.5 -82t33.5 -82t84.5 -31z" />
    <glyph glyph-name="h" unicode="h" horiz-adv-x="602" 
d="M62 0v730h151v-266q23 22 56.5 34.5t73.5 12.5q49 0 86.5 -16.5t63.5 -46t39.5 -71t13.5 -92.5v-285h-151v259q0 51 -20.5 83t-64.5 32q-29 0 -55 -13t-42 -33v-328h-151z" />
    <glyph glyph-name="i" unicode="i" horiz-adv-x="275" 
d="M137 548q-19 0 -36 7.5t-30 20t-20.5 29.5t-7.5 37q0 19 7.5 36.5t20.5 30t30 20t36 7.5q20 0 37.5 -7.5t30 -20t20 -30t7.5 -36.5q0 -20 -7.5 -37t-20 -29.5t-30 -20t-37.5 -7.5zM62 500h151v-500h-151v500z" />
    <glyph glyph-name="j" unicode="j" horiz-adv-x="283" 
d="M26 -199q-18 0 -36 2t-35 5.5t-30.5 8t-22.5 8.5l35 123q17 -9 35 -13t33 -4q30 0 47.5 19.5t17.5 64.5v485h151v-510q0 -48 -15 -83.5t-41.5 -59t-62 -35t-76.5 -11.5zM145 548q-19 0 -36 7.5t-30 20t-20.5 29.5t-7.5 37q0 19 7.5 36.5t20.5 30t30 20t36 7.5
q20 0 37.5 -7.5t30 -20t20 -30t7.5 -36.5q0 -20 -7.5 -37t-20 -29.5t-30 -20t-37.5 -7.5z" />
    <glyph glyph-name="k" unicode="k" horiz-adv-x="560" 
d="M213 223v-223h-151v730h151v-409l146 179h179l-184 -226l228 -274h-183z" />
    <glyph glyph-name="l" unicode="l" horiz-adv-x="275" 
d="M62 730h151v-730h-151v730z" />
    <glyph glyph-name="m" unicode="m" horiz-adv-x="895" 
d="M688 256q0 24 -4 45.5t-13 37t-24 24.5t-38 9q-26 0 -49.5 -12.5t-37.5 -35.5q4 -20 4 -41v-283h-151v256q0 24 -4 45.5t-13 37t-24 24.5t-38 9q-25 0 -48 -12t-35 -31v-329h-151v500h151v-35q18 20 50.5 33t65.5 13q44 0 79 -16t61 -45q22 23 62 42t99 19q55 0 95 -18
t65 -49.5t37 -73t12 -87.5v-283h-151v256z" />
    <glyph glyph-name="n" unicode="n" horiz-adv-x="602" 
d="M62 500h151v-36q23 22 56.5 34.5t73.5 12.5q49 0 86.5 -16.5t63.5 -46t39.5 -71t13.5 -92.5v-285h-151v259q0 51 -20.5 83t-64.5 32q-29 0 -55 -13t-42 -33v-328h-151v500z" />
    <glyph glyph-name="o" unicode="o" horiz-adv-x="588" 
d="M294 -11q-54 0 -102 20t-83.5 55.5t-56.5 83t-21 102.5t21 102.5t56.5 83t83.5 55.5t102 20t102 -20t83.5 -55.5t56.5 -83t21 -102.5t-21 -102.5t-56.5 -83t-83.5 -55.5t-102 -20zM294 130q48 0 79.5 33t31.5 87t-31.5 87t-79.5 33t-79.5 -33t-31.5 -87t31.5 -87
t79.5 -33z" />
    <glyph glyph-name="p" unicode="p" horiz-adv-x="610" 
d="M62 500h151v-31q20 18 50 30t68 12q55 0 100.5 -21t78 -57t50 -83.5t17.5 -99.5t-17.5 -99.5t-50 -83.5t-78 -57t-100.5 -21q-38 0 -68 12t-50 31v-226h-151v694zM308 126q25 0 46 10t36 27t23 39.5t8 47.5t-8 47.5t-23 39.5t-36 27t-46 10q-35 0 -57 -13.5t-38 -33.5
v-153q16 -21 38 -34.5t57 -13.5z" />
    <glyph glyph-name="q" unicode="q" horiz-adv-x="609" 
d="M396 32q-20 -19 -50 -31t-68 -12q-56 0 -101 21t-77.5 57t-50 83.5t-17.5 99.5t17.5 99.5t50 83.5t77.5 57t101 21q38 0 68 -12t50 -30v31h151v-694h-151v226zM301 126q35 0 57 13.5t38 34.5v153q-16 20 -38 33.5t-57 13.5q-25 0 -46 -10t-36 -27t-23 -39.5t-8 -47.5
t8 -47.5t23 -39.5t36 -27t46 -10z" />
    <glyph glyph-name="r" unicode="r" horiz-adv-x="394" 
d="M62 500h151v-56q12 26 42.5 44t68.5 18q20 0 36.5 -3.5t24.5 -6.5l-23 -141q-3 2 -14.5 4t-27.5 2q-26 0 -57 -9.5t-50 -35.5v-316h-151v500z" />
    <glyph glyph-name="s" unicode="s" horiz-adv-x="461" 
d="M234 -11q-66 0 -119.5 22t-88.5 68l100 91q17 -25 45 -38.5t63 -13.5q17 0 31.5 6.5t14.5 21.5q0 13 -11 21t-50 18l-33 8q-72 17 -108 60.5t-34 103.5q1 35 15.5 63.5t40 48.5t60.5 31t76 11q116 0 176 -83l-98 -81q-17 22 -37 31t-42 9q-14 0 -27.5 -6t-13.5 -20
q0 -8 6.5 -18t35.5 -18l46 -12q68 -18 107.5 -54.5t39.5 -103.5q0 -36 -15 -66.5t-41.5 -52.5t-62 -34.5t-76.5 -12.5z" />
    <glyph glyph-name="t" unicode="t" horiz-adv-x="478" 
d="M338 -6q-45 0 -82.5 11.5t-64.5 35t-42 59t-15 83.5v186h-120v131h120v152h151v-152h150v-131h-150v-155q0 -45 18.5 -64t56.5 -19q19 0 38 5t30 11l45 -123q-9 -5 -24 -10t-33 -9.5t-38.5 -7.5t-39.5 -3z" />
    <glyph glyph-name="u" unicode="u" horiz-adv-x="591" 
d="M529 0h-151v34q-23 -22 -55 -33.5t-61 -11.5q-50 0 -88.5 16.5t-64.5 46t-39.5 71t-13.5 92.5v285h151v-259q0 -51 20 -83t67 -32q20 0 43.5 12t40.5 34v328h151v-500z" />
    <glyph glyph-name="v" unicode="v" horiz-adv-x="576" 
d="M-1 500h167l121 -304l122 304h168l-219 -500h-140z" />
    <glyph glyph-name="w" unicode="w" horiz-adv-x="810" 
d="M405 264l-85 -264h-152l-165 500h162l87 -307l95 307h116l95 -307l87 307h162l-164 -500h-152z" />
    <glyph glyph-name="x" unicode="x" horiz-adv-x="577" 
d="M289 136l-106 -136h-181l192 242l-190 258h178l106 -146l106 146h180l-190 -258l191 -242h-180z" />
    <glyph glyph-name="y" unicode="y" horiz-adv-x="576" 
d="M111 -194l97 223l-208 471h165l124 -309l123 309h166l-304 -694h-163z" />
    <glyph glyph-name="z" unicode="z" horiz-adv-x="502" 
d="M41 118l219 246h-216v136h412v-119l-219 -245h227v-136h-423v118z" />
    <glyph glyph-name="braceleft" unicode="{" horiz-adv-x="347" 
d="M231 -160q-66 0 -104.5 38.5t-38.5 103.5v229q0 22 -12 38.5t-41 16.5h-8v108h8q29 0 41 15.5t12 37.5v231q0 65 38.5 103.5t104.5 38.5h88v-108h-48q-31 0 -43.5 -12.5t-12.5 -44.5v-217q0 -44 -18 -67.5t-45 -30.5q27 -7 45 -32t18 -69v-214q0 -32 12.5 -44.5
t43.5 -12.5h48v-108h-88z" />
    <glyph glyph-name="bar" unicode="|" horiz-adv-x="268" 
d="M71 710h126v-820h-126v820z" />
    <glyph glyph-name="braceright" unicode="}" horiz-adv-x="347" 
d="M28 -160v108h48q31 0 43.5 12.5t12.5 44.5v214q0 44 18 69t45 32q-27 7 -45 30.5t-18 67.5v217q0 32 -12.5 44.5t-43.5 12.5h-48v108h88q66 0 104.5 -38.5t38.5 -103.5v-231q0 -22 12 -37.5t41 -15.5h8v-108h-8q-29 0 -41 -16.5t-12 -38.5v-229q0 -65 -38.5 -103.5
t-104.5 -38.5h-88z" />
    <glyph glyph-name="uni00A0" unicode="&#xa0;" horiz-adv-x="225" 
 />
    <glyph glyph-name="exclamdown" unicode="&#xa1;" horiz-adv-x="282" 
d="M217 69v-263h-152v263l29 186h93zM52 321v179h179v-179h-179z" />
    <glyph glyph-name="sterling" unicode="&#xa3;" horiz-adv-x="588" 
d="M44 385h74q-10 29 -17.5 59t-7.5 62q0 50 17.5 90t48 68t73 43t93.5 15q81 0 137 -35t87 -89l-118 -86q-14 23 -40 42t-62 19q-34 0 -59.5 -18t-25.5 -61q0 -27 9 -53.5t20 -55.5h166v-57h-146q6 -21 10 -44t4 -48q0 -19 -5 -40.5t-19 -46.5h271v-149h-510v149h95
q19 41 19 83q0 24 -5.5 48t-13.5 48h-95v57z" />
    <glyph glyph-name="yen" unicode="&#xa5;" horiz-adv-x="735" 
d="M75 355h180l-231 355h184l159 -260l159 260h184l-230 -355h180v-57h-217v-76h217v-57h-217v-165h-151v165h-217v57h217v76h-217v57z" />
    <glyph glyph-name="dieresis" unicode="&#xa8;" 
d="M-118 562q-17 0 -31.5 6.5t-25.5 17t-17.5 25t-6.5 30.5q0 34 23.5 57.5t57.5 23.5q16 0 30.5 -6.5t25 -17.5t17 -25.5t6.5 -31.5q0 -32 -23.5 -55.5t-55.5 -23.5zM119 562q-33 0 -56.5 23.5t-23.5 55.5q0 34 23.5 57.5t56.5 23.5t56.5 -23.5t23.5 -57.5
q0 -32 -23.5 -55.5t-56.5 -23.5z" />
    <glyph glyph-name="copyright" unicode="&#xa9;" horiz-adv-x="803" 
d="M401 76q58 0 108.5 22t88.5 60t60 88.5t22 108.5t-22 108.5t-60 88.5t-88.5 60t-108.5 22q-57 0 -108 -22t-88.5 -60t-59.5 -88.5t-22 -108.5t22 -108.5t59.5 -88.5t88.5 -60t108 -22zM401 -12q-75 0 -142 29t-116.5 79t-78.5 116.5t-29 142.5t29 142.5t78.5 116.5
t116.5 79t142 29q76 0 142.5 -29t116.5 -79t79 -116.5t29 -142.5t-29 -142.5t-79 -116.5t-116.5 -79t-142.5 -29zM402 163q-40 0 -75 15t-61 41t-41 61t-15 75q0 39 15 74t41 61.5t61 41.5t75 15q59 0 105 -28t70 -75l-78 -42q-15 28 -38.5 44t-58.5 16q-22 0 -41 -8.5
t-33 -23.5t-22 -34.5t-8 -40.5q0 -22 8 -41.5t22 -34t33 -23t41 -8.5q35 0 58.5 16t38.5 43l78 -41q-24 -47 -70 -75t-105 -28z" />
    <glyph glyph-name="guillemotleft" unicode="&#xab;" horiz-adv-x="524" 
d="M486 77l-95 -61l-152 234l152 234l95 -61l-90 -173zM275 77l-95 -61l-152 234l152 234l95 -61l-90 -173z" />
    <glyph glyph-name="uni00AD" unicode="&#xad;" horiz-adv-x="404" 
d="M55 352h294v-144h-294v144z" />
    <glyph glyph-name="macron" unicode="&#xaf;" 
d="M-174 710h348v-104h-348v104z" />
    <glyph glyph-name="degree" unicode="&#xb0;" horiz-adv-x="382" 
d="M192 493q25 0 42.5 17.5t17.5 42.5t-17.5 43t-42.5 18q-27 0 -44.5 -18t-17.5 -43t17.5 -42.5t44.5 -17.5zM192 393q-33 0 -62.5 12.5t-51.5 34.5t-34.5 51t-12.5 62t12.5 62.5t34.5 51.5t51.5 34.5t62.5 12.5t62 -12.5t51 -34.5t34.5 -51.5t12.5 -62.5t-12.5 -62
t-34.5 -51t-51 -34.5t-62 -12.5z" />
    <glyph glyph-name="acute" unicode="&#xb4;" 
d="M-47 730h173l-143 -174h-110z" />
    <glyph glyph-name="periodcentered" unicode="&#xb7;" horiz-adv-x="289" 
d="M55 183v179h179v-179h-179z" />
    <glyph glyph-name="cedilla" unicode="&#xb8;" 
d="M-106 -124q30 -17 68 -17q6 0 14.5 1t16 4t13 8t5.5 14q0 14 -10.5 19t-22.5 5t-23 -3.5t-19 -8.5l-36 19l52 86h64l-28 -47q7 5 19.5 8.5t26.5 3.5q35 0 59 -21.5t24 -54.5q0 -22 -11.5 -39.5t-30.5 -30t-44 -19.5t-51 -7q-23 0 -49.5 3t-50.5 13z" />
    <glyph glyph-name="guillemotright" unicode="&#xbb;" horiz-adv-x="524" 
d="M339 250l-90 173l95 61l152 -234l-152 -234l-95 61zM128 250l-90 173l95 61l152 -234l-152 -234l-95 61z" />
    <glyph glyph-name="questiondown" unicode="&#xbf;" horiz-adv-x="540" 
d="M267 -204q-50 0 -91 17t-70.5 45t-46 64.5t-16.5 76.5q0 26 3.5 49t13 44t26.5 40.5t43 39.5q40 30 63.5 47t23.5 35v1h151v-19q0 -45 -21.5 -75.5t-63.5 -59.5q-17 -11 -32.5 -20t-28 -19.5t-20 -23t-7.5 -30.5q0 -31 23 -47t53 -16q32 0 68.5 17t62.5 56l119 -82
q-15 -26 -40 -51.5t-57 -45t-71.5 -31.5t-84.5 -12zM202 321v179h179v-179h-179z" />
    <glyph glyph-name="Agrave" unicode="&#xc0;" horiz-adv-x="750" 
d="M303 710h144l304 -710h-166l-63 150h-294l-63 -150h-166zM285 288h179l-89 213zM319 768l-125 137h165l70 -137h-110z" />
    <glyph glyph-name="Aacute" unicode="&#xc1;" horiz-adv-x="750" 
d="M303 710h144l304 -710h-166l-63 150h-294l-63 -150h-166zM285 288h179l-89 213zM393 905h165l-125 -137h-110z" />
    <glyph glyph-name="Acircumflex" unicode="&#xc2;" horiz-adv-x="750" 
d="M303 710h144l304 -710h-166l-63 150h-294l-63 -150h-166zM285 288h179l-89 213zM307 905h138l114 -137h-134l-49 48l-50 -48h-133z" />
    <glyph glyph-name="Atilde" unicode="&#xc3;" horiz-adv-x="750" 
d="M303 710h144l304 -710h-166l-63 150h-294l-63 -150h-166zM285 288h179l-89 213zM187 804q4 28 15.5 50t28 37t36.5 22.5t41 7.5q23 0 42.5 -7.5t35.5 -16t29.5 -16t25.5 -7.5q20 0 29 12.5t15 35.5h83l-4 -28q-4 -29 -16 -50.5t-28.5 -36.5t-36.5 -22.5t-41 -7.5
q-23 0 -42.5 7.5t-35.5 16t-29.5 16t-24.5 7.5q-20 0 -29 -12.5t-16 -35.5h-82z" />
    <glyph glyph-name="Adieresis" unicode="&#xc4;" horiz-adv-x="750" 
d="M303 710h144l304 -710h-166l-63 150h-294l-63 -150h-166zM285 288h179l-89 213zM258 768q-17 0 -31.5 6.5t-25.5 17.5t-17.5 25.5t-6.5 30.5q0 34 23.5 57.5t57.5 23.5q16 0 30.5 -6.5t25 -17.5t17 -25.5t6.5 -31.5q0 -16 -6.5 -30.5t-17 -25.5t-25 -17.5t-30.5 -6.5z
M495 768q-17 0 -31.5 6.5t-25 17.5t-17 25.5t-6.5 30.5q0 34 23.5 57.5t56.5 23.5t56.5 -23.5t23.5 -57.5q0 -16 -6.5 -30.5t-17 -25.5t-25.5 -17.5t-31 -6.5z" />
    <glyph glyph-name="Aring" unicode="&#xc5;" horiz-adv-x="750" 
d="M303 710h144l304 -710h-166l-63 150h-294l-63 -150h-166zM285 288h179l-89 213zM377 753q-25 0 -47 9.5t-38.5 26t-26.5 38t-10 46.5t10 46.5t26.5 38t38.5 26t47 9.5t47 -9.5t38.5 -26t26.5 -38t10 -46.5t-10 -46.5t-26.5 -38t-38.5 -26t-47 -9.5zM377 818q23 0 39.5 16
t16.5 39t-16.5 39t-39.5 16t-39.5 -16t-16.5 -39t16.5 -39t39.5 -16z" />
    <glyph glyph-name="AE" unicode="&#xc6;" horiz-adv-x="948" 
d="M452 150h-225l-82 -150h-173l394 710h536v-152h-291v-127h231v-152h-231v-127h291v-152h-450v150zM302 288h150v270h-2z" />
    <glyph glyph-name="Ccedilla" unicode="&#xc7;" horiz-adv-x="752" 
d="M402 -12q-76 0 -143 29t-116.5 79t-78.5 116.5t-29 142.5t29 142.5t78.5 116.5t116.5 79t143 29q55 0 105.5 -14t93 -39.5t76.5 -61t57 -79.5l-140 -76q-30 54 -77.5 85t-114.5 31q-44 0 -81.5 -17t-65.5 -46.5t-44 -68t-16 -81.5t16 -81.5t44 -68t65.5 -46.5t81.5 -17
q67 0 114.5 31t77.5 85l140 -76q-23 -44 -57 -79.5t-76.5 -61t-93 -39.5t-105.5 -14zM297 -124q30 -17 68 -17q6 0 14.5 1t16 4t13 8t5.5 14q0 14 -10.5 19t-21.5 5q-13 0 -24 -3.5t-19 -8.5l-36 19l52 86h64l-28 -47q7 5 20 8.5t27 3.5q34 0 58 -21.5t24 -54.5
q0 -22 -11.5 -39.5t-30.5 -30t-44 -19.5t-51 -7q-23 0 -49.5 3t-50.5 13z" />
    <glyph glyph-name="Egrave" unicode="&#xc8;" horiz-adv-x="571" 
d="M75 710h450v-152h-291v-127h231v-152h-231v-127h291v-152h-450v710zM242 768l-125 137h165l70 -137h-110z" />
    <glyph glyph-name="Eacute" unicode="&#xc9;" horiz-adv-x="571" 
d="M75 710h450v-152h-291v-127h231v-152h-231v-127h291v-152h-450v710zM316 905h165l-125 -137h-110z" />
    <glyph glyph-name="Ecircumflex" unicode="&#xca;" horiz-adv-x="571" 
d="M75 710h450v-152h-291v-127h231v-152h-231v-127h291v-152h-450v710zM230 905h138l114 -137h-134l-49 48l-50 -48h-133z" />
    <glyph glyph-name="Edieresis" unicode="&#xcb;" horiz-adv-x="571" 
d="M75 710h450v-152h-291v-127h231v-152h-231v-127h291v-152h-450v710zM181 768q-17 0 -31.5 6.5t-25.5 17.5t-17.5 25.5t-6.5 30.5q0 34 23.5 57.5t57.5 23.5q16 0 30.5 -6.5t25 -17.5t17 -25.5t6.5 -31.5q0 -16 -6.5 -30.5t-17 -25.5t-25 -17.5t-30.5 -6.5zM418 768
q-17 0 -31.5 6.5t-25 17.5t-17 25.5t-6.5 30.5q0 34 23.5 57.5t56.5 23.5t56.5 -23.5t23.5 -57.5q0 -16 -6.5 -30.5t-17 -25.5t-25.5 -17.5t-31 -6.5z" />
    <glyph glyph-name="Igrave" unicode="&#xcc;" horiz-adv-x="309" 
d="M75 710h159v-710h-159v710zM98 768l-125 137h165l70 -137h-110z" />
    <glyph glyph-name="Iacute" unicode="&#xcd;" horiz-adv-x="309" 
d="M75 710h159v-710h-159v710zM172 905h165l-125 -137h-110z" />
    <glyph glyph-name="Icircumflex" unicode="&#xce;" horiz-adv-x="309" 
d="M75 710h159v-710h-159v710zM86 905h138l114 -137h-134l-49 48l-50 -48h-133z" />
    <glyph glyph-name="Idieresis" unicode="&#xcf;" horiz-adv-x="309" 
d="M75 710h159v-710h-159v710zM37 768q-17 0 -31.5 6.5t-25.5 17.5t-17.5 25.5t-6.5 30.5q0 34 23.5 57.5t57.5 23.5q16 0 30.5 -6.5t25 -17.5t17 -25.5t6.5 -31.5q0 -16 -6.5 -30.5t-17 -25.5t-25 -17.5t-30.5 -6.5zM274 768q-17 0 -31.5 6.5t-25 17.5t-17 25.5t-6.5 30.5
q0 34 23.5 57.5t56.5 23.5t56.5 -23.5t23.5 -57.5q0 -16 -6.5 -30.5t-17 -25.5t-25.5 -17.5t-31 -6.5z" />
    <glyph glyph-name="Eth" unicode="&#xd0;" horiz-adv-x="732" 
d="M92 710h242q75 0 141 -28t115 -76t77.5 -112.5t28.5 -138.5t-28.5 -138.5t-77.5 -112.5t-115 -76t-141 -28h-242v710zM334 146q45 0 82 16.5t63.5 45t41 66.5t14.5 81t-14.5 81t-41 66.5t-63.5 45t-82 16.5h-83v-418h83zM20 427h351v-138h-351v138z" />
    <glyph glyph-name="Ntilde" unicode="&#xd1;" horiz-adv-x="792" 
d="M580 0l-346 439v-439h-159v710h137l345 -439v439h160v-710h-137zM207 804q4 28 15.5 50t28 37t36.5 22.5t41 7.5q23 0 42.5 -7.5t35.5 -16t29.5 -16t25.5 -7.5q20 0 29 12.5t15 35.5h83l-4 -28q-4 -29 -16 -50.5t-28.5 -36.5t-36.5 -22.5t-41 -7.5q-23 0 -42.5 7.5
t-35.5 16t-29.5 16t-24.5 7.5q-20 0 -29 -12.5t-16 -35.5h-82z" />
    <glyph glyph-name="Ograve" unicode="&#xd2;" horiz-adv-x="804" 
d="M402 142q43 0 80.5 17t65.5 46.5t44 68t16 81.5t-16 81.5t-44 68t-65.5 46.5t-80.5 17q-44 0 -81.5 -17t-65.5 -46.5t-44 -68t-16 -81.5t16 -81.5t44 -68t65.5 -46.5t81.5 -17zM402 -12q-76 0 -143 29t-116.5 79t-78.5 116.5t-29 142.5t29 142.5t78.5 116.5t116.5 79
t143 29t142.5 -29t116.5 -79t79 -116.5t29 -142.5t-29 -142.5t-79 -116.5t-116.5 -79t-142.5 -29zM345 768l-125 137h165l70 -137h-110z" />
    <glyph glyph-name="Oacute" unicode="&#xd3;" horiz-adv-x="804" 
d="M402 142q43 0 80.5 17t65.5 46.5t44 68t16 81.5t-16 81.5t-44 68t-65.5 46.5t-80.5 17q-44 0 -81.5 -17t-65.5 -46.5t-44 -68t-16 -81.5t16 -81.5t44 -68t65.5 -46.5t81.5 -17zM402 -12q-76 0 -143 29t-116.5 79t-78.5 116.5t-29 142.5t29 142.5t78.5 116.5t116.5 79
t143 29t142.5 -29t116.5 -79t79 -116.5t29 -142.5t-29 -142.5t-79 -116.5t-116.5 -79t-142.5 -29zM419 905h165l-125 -137h-110z" />
    <glyph glyph-name="Ocircumflex" unicode="&#xd4;" horiz-adv-x="804" 
d="M402 142q43 0 80.5 17t65.5 46.5t44 68t16 81.5t-16 81.5t-44 68t-65.5 46.5t-80.5 17q-44 0 -81.5 -17t-65.5 -46.5t-44 -68t-16 -81.5t16 -81.5t44 -68t65.5 -46.5t81.5 -17zM402 -12q-76 0 -143 29t-116.5 79t-78.5 116.5t-29 142.5t29 142.5t78.5 116.5t116.5 79
t143 29t142.5 -29t116.5 -79t79 -116.5t29 -142.5t-29 -142.5t-79 -116.5t-116.5 -79t-142.5 -29zM333 905h138l114 -137h-134l-49 48l-50 -48h-133z" />
    <glyph glyph-name="Otilde" unicode="&#xd5;" horiz-adv-x="804" 
d="M402 142q43 0 80.5 17t65.5 46.5t44 68t16 81.5t-16 81.5t-44 68t-65.5 46.5t-80.5 17q-44 0 -81.5 -17t-65.5 -46.5t-44 -68t-16 -81.5t16 -81.5t44 -68t65.5 -46.5t81.5 -17zM402 -12q-76 0 -143 29t-116.5 79t-78.5 116.5t-29 142.5t29 142.5t78.5 116.5t116.5 79
t143 29t142.5 -29t116.5 -79t79 -116.5t29 -142.5t-29 -142.5t-79 -116.5t-116.5 -79t-142.5 -29zM213 804q4 28 15.5 50t28 37t36.5 22.5t41 7.5q23 0 42.5 -7.5t35.5 -16t29.5 -16t25.5 -7.5q20 0 29 12.5t15 35.5h83l-4 -28q-4 -29 -16 -50.5t-28.5 -36.5t-36.5 -22.5
t-41 -7.5q-23 0 -42.5 7.5t-35.5 16t-29.5 16t-24.5 7.5q-20 0 -29 -12.5t-16 -35.5h-82z" />
    <glyph glyph-name="Odieresis" unicode="&#xd6;" horiz-adv-x="804" 
d="M402 142q43 0 80.5 17t65.5 46.5t44 68t16 81.5t-16 81.5t-44 68t-65.5 46.5t-80.5 17q-44 0 -81.5 -17t-65.5 -46.5t-44 -68t-16 -81.5t16 -81.5t44 -68t65.5 -46.5t81.5 -17zM402 -12q-76 0 -143 29t-116.5 79t-78.5 116.5t-29 142.5t29 142.5t78.5 116.5t116.5 79
t143 29t142.5 -29t116.5 -79t79 -116.5t29 -142.5t-29 -142.5t-79 -116.5t-116.5 -79t-142.5 -29zM284 768q-17 0 -31.5 6.5t-25.5 17.5t-17.5 25.5t-6.5 30.5q0 34 23.5 57.5t57.5 23.5q16 0 30.5 -6.5t25 -17.5t17 -25.5t6.5 -31.5q0 -16 -6.5 -30.5t-17 -25.5t-25 -17.5
t-30.5 -6.5zM521 768q-17 0 -31.5 6.5t-25 17.5t-17 25.5t-6.5 30.5q0 34 23.5 57.5t56.5 23.5t56.5 -23.5t23.5 -57.5q0 -16 -6.5 -30.5t-17 -25.5t-25.5 -17.5t-31 -6.5z" />
    <glyph glyph-name="multiply" unicode="&#xd7;" horiz-adv-x="507" 
d="M39 166l123 123l-123 123l92 92l123 -122l123 122l91 -92l-122 -123l122 -123l-91 -92l-123 122l-123 -122z" />
    <glyph glyph-name="Oslash" unicode="&#xd8;" horiz-adv-x="811" 
d="M406 142q43 0 80.5 17t65.5 46.5t44 68t16 81.5t-16 81.5t-44 68t-65.5 46.5t-80.5 17q-44 0 -81.5 -17t-65.5 -46.5t-44 -68t-16 -81.5t16 -81.5t44 -68t65.5 -46.5t81.5 -17zM406 -12q-76 0 -143 29t-116.5 79t-78.5 116.5t-29 142.5t29 142.5t78.5 116.5t116.5 79
t143 29t142.5 -29t116.5 -79t79 -116.5t29 -142.5t-29 -142.5t-79 -116.5t-116.5 -79t-142.5 -29zM121 -18l-89 90l657 656l89 -90z" />
    <glyph glyph-name="Ugrave" unicode="&#xd9;" horiz-adv-x="718" 
d="M359 -12q-64 0 -117.5 21t-92.5 59t-60.5 92.5t-21.5 120.5v429h159v-431q0 -64 36.5 -100.5t96.5 -36.5t96.5 36.5t36.5 100.5v431h159v-429q0 -66 -21.5 -120.5t-60.5 -92.5t-92.5 -59t-117.5 -21zM302 768l-125 137h165l70 -137h-110z" />
    <glyph glyph-name="Uacute" unicode="&#xda;" horiz-adv-x="718" 
d="M359 -12q-64 0 -117.5 21t-92.5 59t-60.5 92.5t-21.5 120.5v429h159v-431q0 -64 36.5 -100.5t96.5 -36.5t96.5 36.5t36.5 100.5v431h159v-429q0 -66 -21.5 -120.5t-60.5 -92.5t-92.5 -59t-117.5 -21zM376 905h165l-125 -137h-110z" />
    <glyph glyph-name="Ucircumflex" unicode="&#xdb;" horiz-adv-x="718" 
d="M359 -12q-64 0 -117.5 21t-92.5 59t-60.5 92.5t-21.5 120.5v429h159v-431q0 -64 36.5 -100.5t96.5 -36.5t96.5 36.5t36.5 100.5v431h159v-429q0 -66 -21.5 -120.5t-60.5 -92.5t-92.5 -59t-117.5 -21zM290 905h138l114 -137h-134l-49 48l-50 -48h-133z" />
    <glyph glyph-name="Udieresis" unicode="&#xdc;" horiz-adv-x="718" 
d="M359 -12q-64 0 -117.5 21t-92.5 59t-60.5 92.5t-21.5 120.5v429h159v-431q0 -64 36.5 -100.5t96.5 -36.5t96.5 36.5t36.5 100.5v431h159v-429q0 -66 -21.5 -120.5t-60.5 -92.5t-92.5 -59t-117.5 -21zM241 768q-17 0 -31.5 6.5t-25.5 17.5t-17.5 25.5t-6.5 30.5
q0 34 23.5 57.5t57.5 23.5q16 0 30.5 -6.5t25 -17.5t17 -25.5t6.5 -31.5q0 -16 -6.5 -30.5t-17 -25.5t-25 -17.5t-30.5 -6.5zM478 768q-17 0 -31.5 6.5t-25 17.5t-17 25.5t-6.5 30.5q0 34 23.5 57.5t56.5 23.5t56.5 -23.5t23.5 -57.5q0 -16 -6.5 -30.5t-17 -25.5
t-25.5 -17.5t-31 -6.5z" />
    <glyph glyph-name="Yacute" unicode="&#xdd;" horiz-adv-x="694" 
d="M267 299l-259 411h185l153 -256l155 256h185l-259 -412v-298h-160v299zM364 905h165l-125 -137h-110z" />
    <glyph glyph-name="Thorn" unicode="&#xde;" horiz-adv-x="598" 
d="M566 355q0 -51 -19 -95.5t-52.5 -77.5t-79 -51.5t-99.5 -18.5h-82v-112h-159v710h159v-112h82q54 0 99.5 -18.5t79 -51.5t52.5 -77.5t19 -95.5zM412 355q0 39 -27.5 66t-70.5 27h-80v-186h80q43 0 70.5 27t27.5 66z" />
    <glyph glyph-name="germandbls" unicode="&#xdf;" horiz-adv-x="590" 
d="M62 505q0 54 19.5 97t52 72.5t75.5 45.5t91 16q47 0 89 -15t73.5 -42t49.5 -64.5t18 -83.5q0 -42 -18 -79.5t-52 -68.5q48 -29 73 -73.5t25 -87.5q0 -51 -19.5 -92t-52.5 -70t-76.5 -44.5t-92.5 -15.5h-34v136h27q42 0 69.5 25t27.5 62t-27.5 62t-69.5 25h-27v135h14
q38 0 60 21.5t22 56.5q0 34 -22 55.5t-58 21.5q-37 0 -62 -25.5t-25 -67.5v-507h-150v505z" />
    <glyph glyph-name="agrave" unicode="&#xe0;" horiz-adv-x="609" 
d="M278 -11q-56 0 -101 21t-77.5 57t-50 83.5t-17.5 99.5t17.5 99.5t50 83.5t77.5 57t101 21q38 0 68 -12t50 -30v31h151v-500h-151v32q-20 -19 -50 -31t-68 -12zM301 126q35 0 57 13.5t38 34.5v153q-16 20 -38 33.5t-57 13.5q-25 0 -46 -10t-36 -27t-23 -39.5t-8 -47.5
t8 -47.5t23 -39.5t36 -27t46 -10zM284 556l-143 174h173l80 -174h-110z" />
    <glyph glyph-name="aacute" unicode="&#xe1;" horiz-adv-x="609" 
d="M278 -11q-56 0 -101 21t-77.5 57t-50 83.5t-17.5 99.5t17.5 99.5t50 83.5t77.5 57t101 21q38 0 68 -12t50 -30v31h151v-500h-151v32q-20 -19 -50 -31t-68 -12zM301 126q35 0 57 13.5t38 34.5v153q-16 20 -38 33.5t-57 13.5q-25 0 -46 -10t-36 -27t-23 -39.5t-8 -47.5
t8 -47.5t23 -39.5t36 -27t46 -10zM356 730h173l-143 -174h-110z" />
    <glyph glyph-name="acircumflex" unicode="&#xe2;" horiz-adv-x="609" 
d="M278 -11q-56 0 -101 21t-77.5 57t-50 83.5t-17.5 99.5t17.5 99.5t50 83.5t77.5 57t101 21q38 0 68 -12t50 -30v31h151v-500h-151v32q-20 -19 -50 -31t-68 -12zM301 126q35 0 57 13.5t38 34.5v153q-16 20 -38 33.5t-57 13.5q-25 0 -46 -10t-36 -27t-23 -39.5t-8 -47.5
t8 -47.5t23 -39.5t36 -27t46 -10zM272 730h126l127 -152h-129l-61 61l-61 -61h-129z" />
    <glyph glyph-name="atilde" unicode="&#xe3;" horiz-adv-x="609" 
d="M278 -11q-56 0 -101 21t-77.5 57t-50 83.5t-17.5 99.5t17.5 99.5t50 83.5t77.5 57t101 21q38 0 68 -12t50 -30v31h151v-500h-151v32q-20 -19 -50 -31t-68 -12zM301 126q35 0 57 13.5t38 34.5v153q-16 20 -38 33.5t-57 13.5q-25 0 -46 -10t-36 -27t-23 -39.5t-8 -47.5
t8 -47.5t23 -39.5t36 -27t46 -10zM146 593q4 28 15.5 50t28 37t36.5 22.5t41 7.5q23 0 42.5 -7.5t35.5 -16t29.5 -16t25.5 -7.5q20 0 29 12.5t15 35.5h83l-4 -28q-4 -29 -16 -50.5t-28.5 -36.5t-36 -22.5t-40.5 -7.5q-23 0 -42.5 7.5t-35.5 16t-29.5 16t-25.5 7.5
q-20 0 -29 -12.5t-15 -35.5h-83z" />
    <glyph glyph-name="adieresis" unicode="&#xe4;" horiz-adv-x="609" 
d="M278 -11q-56 0 -101 21t-77.5 57t-50 83.5t-17.5 99.5t17.5 99.5t50 83.5t77.5 57t101 21q38 0 68 -12t50 -30v31h151v-500h-151v32q-20 -19 -50 -31t-68 -12zM301 126q35 0 57 13.5t38 34.5v153q-16 20 -38 33.5t-57 13.5q-25 0 -46 -10t-36 -27t-23 -39.5t-8 -47.5
t8 -47.5t23 -39.5t36 -27t46 -10zM217 562q-17 0 -31.5 6.5t-25.5 17t-17.5 25t-6.5 30.5q0 34 23.5 57.5t57.5 23.5q16 0 30.5 -6.5t25 -17.5t17 -25.5t6.5 -31.5q0 -32 -23.5 -55.5t-55.5 -23.5zM454 562q-33 0 -56.5 23.5t-23.5 55.5q0 34 23.5 57.5t56.5 23.5
t56.5 -23.5t23.5 -57.5q0 -32 -23.5 -55.5t-56.5 -23.5z" />
    <glyph glyph-name="aring" unicode="&#xe5;" horiz-adv-x="609" 
d="M278 -11q-56 0 -101 21t-77.5 57t-50 83.5t-17.5 99.5t17.5 99.5t50 83.5t77.5 57t101 21q38 0 68 -12t50 -30v31h151v-500h-151v32q-20 -19 -50 -31t-68 -12zM301 126q35 0 57 13.5t38 34.5v153q-16 20 -38 33.5t-57 13.5q-25 0 -46 -10t-36 -27t-23 -39.5t-8 -47.5
t8 -47.5t23 -39.5t36 -27t46 -10zM335 543q-25 0 -47 9.5t-38.5 26t-26.5 38t-10 46.5t10 46.5t26.5 38t38.5 26t47 9.5t47 -9.5t38.5 -26t26.5 -38t10 -46.5t-10 -46.5t-26.5 -38t-38.5 -26t-47 -9.5zM335 608q23 0 39.5 16t16.5 39t-16.5 39t-39.5 16t-39.5 -16t-16.5 -39
t16.5 -39t39.5 -16z" />
    <glyph glyph-name="ae" unicode="&#xe6;" horiz-adv-x="885" 
d="M229 -8q-42 0 -79 9.5t-64 30t-42.5 51.5t-15.5 73q0 37 15 65t41.5 47t61.5 29t75 10q62 0 116 -26v14q-6 41 -40 59t-76 18q-31 0 -62.5 -10t-52.5 -23l-31 141q35 14 74.5 22.5t81.5 8.5q64 0 111.5 -20.5t80.5 -55.5q35 35 83.5 55.5t106.5 20.5q45 0 88 -15.5
t76.5 -46t54 -76t20.5 -106.5q0 -10 -0.5 -22.5t-2.5 -30.5h-363q7 -45 43 -66.5t79 -21.5q44 0 75.5 17.5t45.5 39.5l112 -84q-18 -25 -42 -45t-53 -34.5t-60.5 -22.5t-64.5 -8q-57 0 -106.5 19.5t-86.5 54.5q-38 -33 -87.5 -52t-111.5 -19zM599 388q-17 0 -34 -4t-32 -13
t-26.5 -23t-16.5 -35h212q-10 40 -40 57.5t-63 17.5zM241 118q31 0 57 9t39 26v28q-38 23 -95 23q-28 0 -48 -9.5t-20 -34.5q0 -12 6 -20t16 -13t21.5 -7t23.5 -2z" />
    <glyph glyph-name="ccedilla" unicode="&#xe7;" horiz-adv-x="556" 
d="M298 -11q-55 0 -103.5 19.5t-84.5 54t-57 82.5t-21 105t21 105t57 82.5t84.5 54t103.5 19.5q39 0 75 -10.5t67 -30t56 -46t41 -59.5l-132 -70q-14 32 -41.5 53.5t-65.5 21.5q-24 0 -44.5 -9t-36 -24.5t-24.5 -37.5t-9 -49t9 -49t24.5 -37.5t36 -24.5t44.5 -9
q38 0 65.5 21.5t41.5 53.5l132 -70q-16 -33 -41 -59.5t-56 -46t-67 -30t-75 -10.5zM193 -124q30 -17 68 -17q6 0 14.5 1t16 4t13 8t5.5 14q0 14 -10.5 19t-22.5 5t-23 -3.5t-19 -8.5l-36 19l52 86h64l-28 -47q7 5 19.5 8.5t26.5 3.5q35 0 59 -21.5t24 -54.5
q0 -22 -11.5 -39.5t-30.5 -30t-44 -19.5t-51 -7q-23 0 -49.5 3t-50.5 13z" />
    <glyph glyph-name="egrave" unicode="&#xe8;" horiz-adv-x="577" 
d="M298 -11q-55 0 -103.5 18t-84.5 52t-57 82.5t-21 108.5q0 56 19.5 103.5t55 82.5t83.5 55t105 20q49 0 94.5 -15.5t79.5 -46t54.5 -76t20.5 -106.5q0 -10 -0.5 -22.5t-2.5 -30.5h-363q7 -45 43 -66.5t79 -21.5q44 0 75.5 17.5t45.5 39.5l112 -84q-35 -50 -95.5 -80
t-139.5 -30zM394 313q-10 40 -40 57.5t-63 17.5q-17 0 -34 -4t-32 -13t-26.5 -23t-16.5 -35h212zM249 556l-143 174h173l80 -174h-110z" />
    <glyph glyph-name="eacute" unicode="&#xe9;" horiz-adv-x="577" 
d="M298 -11q-55 0 -103.5 18t-84.5 52t-57 82.5t-21 108.5q0 56 19.5 103.5t55 82.5t83.5 55t105 20q49 0 94.5 -15.5t79.5 -46t54.5 -76t20.5 -106.5q0 -10 -0.5 -22.5t-2.5 -30.5h-363q7 -45 43 -66.5t79 -21.5q44 0 75.5 17.5t45.5 39.5l112 -84q-35 -50 -95.5 -80
t-139.5 -30zM394 313q-10 40 -40 57.5t-63 17.5q-17 0 -34 -4t-32 -13t-26.5 -23t-16.5 -35h212zM321 730h173l-143 -174h-110z" />
    <glyph glyph-name="ecircumflex" unicode="&#xea;" horiz-adv-x="577" 
d="M298 -11q-55 0 -103.5 18t-84.5 52t-57 82.5t-21 108.5q0 56 19.5 103.5t55 82.5t83.5 55t105 20q49 0 94.5 -15.5t79.5 -46t54.5 -76t20.5 -106.5q0 -10 -0.5 -22.5t-2.5 -30.5h-363q7 -45 43 -66.5t79 -21.5q44 0 75.5 17.5t45.5 39.5l112 -84q-35 -50 -95.5 -80
t-139.5 -30zM394 313q-10 40 -40 57.5t-63 17.5q-17 0 -34 -4t-32 -13t-26.5 -23t-16.5 -35h212zM237 730h126l127 -152h-129l-61 61l-61 -61h-129z" />
    <glyph glyph-name="edieresis" unicode="&#xeb;" horiz-adv-x="577" 
d="M298 -11q-55 0 -103.5 18t-84.5 52t-57 82.5t-21 108.5q0 56 19.5 103.5t55 82.5t83.5 55t105 20q49 0 94.5 -15.5t79.5 -46t54.5 -76t20.5 -106.5q0 -10 -0.5 -22.5t-2.5 -30.5h-363q7 -45 43 -66.5t79 -21.5q44 0 75.5 17.5t45.5 39.5l112 -84q-35 -50 -95.5 -80
t-139.5 -30zM394 313q-10 40 -40 57.5t-63 17.5q-17 0 -34 -4t-32 -13t-26.5 -23t-16.5 -35h212zM182 562q-17 0 -31.5 6.5t-25.5 17t-17.5 25t-6.5 30.5q0 34 23.5 57.5t57.5 23.5q16 0 30.5 -6.5t25 -17.5t17 -25.5t6.5 -31.5q0 -32 -23.5 -55.5t-55.5 -23.5zM419 562
q-33 0 -56.5 23.5t-23.5 55.5q0 34 23.5 57.5t56.5 23.5t56.5 -23.5t23.5 -57.5q0 -32 -23.5 -55.5t-56.5 -23.5z" />
    <glyph glyph-name="igrave" unicode="&#xec;" horiz-adv-x="275" 
d="M62 500h151v-500h-151v500zM87 556l-143 174h173l80 -174h-110z" />
    <glyph glyph-name="iacute" unicode="&#xed;" horiz-adv-x="275" 
d="M62 500h151v-500h-151v500zM159 730h173l-143 -174h-110z" />
    <glyph glyph-name="icircumflex" unicode="&#xee;" horiz-adv-x="275" 
d="M62 500h151v-500h-151v500zM75 730h126l127 -152h-129l-61 61l-61 -61h-129z" />
    <glyph glyph-name="idieresis" unicode="&#xef;" horiz-adv-x="275" 
d="M62 500h151v-500h-151v500zM44 572q-33 0 -56.5 23.5t-23.5 55.5q0 33 23.5 56.5t56.5 23.5q32 0 55.5 -23.5t23.5 -56.5q0 -32 -23.5 -55.5t-55.5 -23.5zM231 572q-32 0 -55.5 23.5t-23.5 55.5q0 33 23.5 56.5t55.5 23.5q33 0 56.5 -23.5t23.5 -56.5q0 -32 -23.5 -55.5
t-56.5 -23.5z" />
    <glyph glyph-name="eth" unicode="&#xf0;" horiz-adv-x="591" 
d="M406 560l105 -160q21 -33 34.5 -70.5t13.5 -79.5q0 -54 -21 -101.5t-57 -83t-84 -56t-102 -20.5t-102 20.5t-83.5 56t-56.5 83t-21 101.5q0 61 23.5 108t59.5 79.5t78.5 49t80.5 18.5l-36 55h-134v96h72l-47 74h167l48 -74h112v-96h-50zM295 130q48 0 80 33t32 87t-32 87
t-80 33t-79.5 -33t-31.5 -87t31.5 -87t79.5 -33z" />
    <glyph glyph-name="ntilde" unicode="&#xf1;" horiz-adv-x="602" 
d="M62 500h151v-36q23 22 56.5 34.5t73.5 12.5q49 0 86.5 -16.5t63.5 -46t39.5 -71t13.5 -92.5v-285h-151v259q0 51 -20.5 83t-64.5 32q-29 0 -55 -13t-42 -33v-328h-151v500zM114 593q4 28 15.5 50t28 37t36.5 22.5t41 7.5q23 0 42.5 -7.5t35.5 -16t29.5 -16t25.5 -7.5
q20 0 29 12.5t15 35.5h83l-4 -28q-4 -29 -16 -50.5t-28.5 -36.5t-36 -22.5t-40.5 -7.5q-23 0 -42.5 7.5t-35.5 16t-29.5 16t-25.5 7.5q-20 0 -29 -12.5t-15 -35.5h-83z" />
    <glyph glyph-name="ograve" unicode="&#xf2;" horiz-adv-x="588" 
d="M294 -11q-54 0 -102 20t-83.5 55.5t-56.5 83t-21 102.5t21 102.5t56.5 83t83.5 55.5t102 20t102 -20t83.5 -55.5t56.5 -83t21 -102.5t-21 -102.5t-56.5 -83t-83.5 -55.5t-102 -20zM294 130q48 0 79.5 33t31.5 87t-31.5 87t-79.5 33t-79.5 -33t-31.5 -87t31.5 -87
t79.5 -33zM243 556l-143 174h173l80 -174h-110z" />
    <glyph glyph-name="oacute" unicode="&#xf3;" horiz-adv-x="588" 
d="M294 -11q-54 0 -102 20t-83.5 55.5t-56.5 83t-21 102.5t21 102.5t56.5 83t83.5 55.5t102 20t102 -20t83.5 -55.5t56.5 -83t21 -102.5t-21 -102.5t-56.5 -83t-83.5 -55.5t-102 -20zM294 130q48 0 79.5 33t31.5 87t-31.5 87t-79.5 33t-79.5 -33t-31.5 -87t31.5 -87
t79.5 -33zM315 730h173l-143 -174h-110z" />
    <glyph glyph-name="ocircumflex" unicode="&#xf4;" horiz-adv-x="588" 
d="M294 -11q-54 0 -102 20t-83.5 55.5t-56.5 83t-21 102.5t21 102.5t56.5 83t83.5 55.5t102 20t102 -20t83.5 -55.5t56.5 -83t21 -102.5t-21 -102.5t-56.5 -83t-83.5 -55.5t-102 -20zM294 130q48 0 79.5 33t31.5 87t-31.5 87t-79.5 33t-79.5 -33t-31.5 -87t31.5 -87
t79.5 -33zM231 730h126l127 -152h-129l-61 61l-61 -61h-129z" />
    <glyph glyph-name="otilde" unicode="&#xf5;" horiz-adv-x="588" 
d="M294 -11q-54 0 -102 20t-83.5 55.5t-56.5 83t-21 102.5t21 102.5t56.5 83t83.5 55.5t102 20t102 -20t83.5 -55.5t56.5 -83t21 -102.5t-21 -102.5t-56.5 -83t-83.5 -55.5t-102 -20zM294 130q48 0 79.5 33t31.5 87t-31.5 87t-79.5 33t-79.5 -33t-31.5 -87t31.5 -87
t79.5 -33zM105 593q4 28 15.5 50t28 37t36.5 22.5t41 7.5q23 0 42.5 -7.5t35.5 -16t29.5 -16t25.5 -7.5q20 0 29 12.5t15 35.5h83l-4 -28q-4 -29 -16 -50.5t-28.5 -36.5t-36 -22.5t-40.5 -7.5q-23 0 -42.5 7.5t-35.5 16t-29.5 16t-25.5 7.5q-20 0 -29 -12.5t-15 -35.5h-83z
" />
    <glyph glyph-name="odieresis" unicode="&#xf6;" horiz-adv-x="588" 
d="M294 -11q-54 0 -102 20t-83.5 55.5t-56.5 83t-21 102.5t21 102.5t56.5 83t83.5 55.5t102 20t102 -20t83.5 -55.5t56.5 -83t21 -102.5t-21 -102.5t-56.5 -83t-83.5 -55.5t-102 -20zM294 130q48 0 79.5 33t31.5 87t-31.5 87t-79.5 33t-79.5 -33t-31.5 -87t31.5 -87
t79.5 -33zM176 562q-17 0 -31.5 6.5t-25.5 17t-17.5 25t-6.5 30.5q0 34 23.5 57.5t57.5 23.5q16 0 30.5 -6.5t25 -17.5t17 -25.5t6.5 -31.5q0 -32 -23.5 -55.5t-55.5 -23.5zM413 562q-33 0 -56.5 23.5t-23.5 55.5q0 34 23.5 57.5t56.5 23.5t56.5 -23.5t23.5 -57.5
q0 -32 -23.5 -55.5t-56.5 -23.5z" />
    <glyph glyph-name="oslash" unicode="&#xf8;" horiz-adv-x="593" 
d="M297 -11q-54 0 -102 20t-83.5 55.5t-56.5 83t-21 102.5t21 102.5t56.5 83t83.5 55.5t102 20t102 -20t83.5 -55.5t56.5 -83t21 -102.5t-21 -102.5t-56.5 -83t-83.5 -55.5t-102 -20zM297 130q48 0 79.5 33t31.5 87t-31.5 87t-79.5 33t-79.5 -33t-31.5 -87t31.5 -87
t79.5 -33zM83 -11l-47 49l475 473l47 -49z" />
    <glyph glyph-name="ugrave" unicode="&#xf9;" horiz-adv-x="591" 
d="M529 0h-151v34q-23 -22 -55 -33.5t-61 -11.5q-50 0 -88.5 16.5t-64.5 46t-39.5 71t-13.5 92.5v285h151v-259q0 -51 20 -83t67 -32q20 0 43.5 12t40.5 34v328h151v-500zM242 556l-143 174h173l80 -174h-110z" />
    <glyph glyph-name="uacute" unicode="&#xfa;" horiz-adv-x="591" 
d="M529 0h-151v34q-23 -22 -55 -33.5t-61 -11.5q-50 0 -88.5 16.5t-64.5 46t-39.5 71t-13.5 92.5v285h151v-259q0 -51 20 -83t67 -32q20 0 43.5 12t40.5 34v328h151v-500zM314 730h173l-143 -174h-110z" />
    <glyph glyph-name="ucircumflex" unicode="&#xfb;" horiz-adv-x="591" 
d="M529 0h-151v34q-23 -22 -55 -33.5t-61 -11.5q-50 0 -88.5 16.5t-64.5 46t-39.5 71t-13.5 92.5v285h151v-259q0 -51 20 -83t67 -32q20 0 43.5 12t40.5 34v328h151v-500zM230 730h126l127 -152h-129l-61 61l-61 -61h-129z" />
    <glyph glyph-name="udieresis" unicode="&#xfc;" horiz-adv-x="591" 
d="M529 0h-151v34q-23 -22 -55 -33.5t-61 -11.5q-50 0 -88.5 16.5t-64.5 46t-39.5 71t-13.5 92.5v285h151v-259q0 -51 20 -83t67 -32q20 0 43.5 12t40.5 34v328h151v-500zM175 562q-17 0 -31.5 6.5t-25.5 17t-17.5 25t-6.5 30.5q0 34 23.5 57.5t57.5 23.5q16 0 30.5 -6.5
t25 -17.5t17 -25.5t6.5 -31.5q0 -32 -23.5 -55.5t-55.5 -23.5zM412 562q-33 0 -56.5 23.5t-23.5 55.5q0 34 23.5 57.5t56.5 23.5t56.5 -23.5t23.5 -57.5q0 -32 -23.5 -55.5t-56.5 -23.5z" />
    <glyph glyph-name="yacute" unicode="&#xfd;" horiz-adv-x="576" 
d="M111 -194l97 223l-208 471h165l124 -309l123 309h166l-304 -694h-163zM312 730h173l-143 -174h-110z" />
    <glyph glyph-name="thorn" unicode="&#xfe;" horiz-adv-x="610" 
d="M62 730h151v-261q20 18 50 30t68 12q55 0 100.5 -21t78 -57t50 -83.5t17.5 -99.5t-17.5 -99.5t-50 -83.5t-78 -57t-100.5 -21q-38 0 -68 12t-50 31v-226h-151v924zM308 126q25 0 46 10t36 27t23 39.5t8 47.5t-8 47.5t-23 39.5t-36 27t-46 10q-35 0 -57 -13.5t-38 -33.5
v-153q16 -21 38 -34.5t57 -13.5z" />
    <glyph glyph-name="ydieresis" unicode="&#xff;" horiz-adv-x="576" 
d="M111 -194l97 223l-208 471h165l124 -309l123 309h166l-304 -694h-163zM173 562q-17 0 -31.5 6.5t-25.5 17t-17.5 25t-6.5 30.5q0 34 23.5 57.5t57.5 23.5q16 0 30.5 -6.5t25 -17.5t17 -25.5t6.5 -31.5q0 -32 -23.5 -55.5t-55.5 -23.5zM410 562q-33 0 -56.5 23.5
t-23.5 55.5q0 34 23.5 57.5t56.5 23.5t56.5 -23.5t23.5 -57.5q0 -32 -23.5 -55.5t-56.5 -23.5z" />
    <glyph glyph-name="Abreve" unicode="&#x102;" horiz-adv-x="750" 
d="M303 710h144l304 -710h-166l-63 150h-294l-63 -150h-166zM285 288h179l-89 213zM376 747q-37 0 -69.5 12.5t-56.5 36t-38 57t-14 74.5h86q0 -47 27 -70t65 -23t65 23t27 70h86q0 -41 -14 -74.5t-38 -57t-56.5 -36t-69.5 -12.5z" />
    <glyph glyph-name="Amacron" unicode="&#x100;" horiz-adv-x="750" 
d="M303 710h144l304 -710h-166l-63 150h-294l-63 -150h-166zM285 288h179l-89 213zM202 891h348v-104h-348v104z" />
    <glyph glyph-name="Aogonek" unicode="&#x104;" horiz-adv-x="750" 
d="M303 710h144l304 -710q-38 -17 -58.5 -35.5t-20.5 -40.5q0 -15 8.5 -21t18.5 -6q8 0 13.5 2t12.5 7l40 -77q-22 -14 -51 -23.5t-61 -9.5q-50 0 -80.5 24.5t-30.5 67.5q0 38 15 65t28 47l-63 150h-294l-63 -150h-166zM285 288h179l-89 213z" />
    <glyph glyph-name="Cacute" unicode="&#x106;" horiz-adv-x="752" 
d="M402 -12q-76 0 -143 29t-116.5 79t-78.5 116.5t-29 142.5t29 142.5t78.5 116.5t116.5 79t143 29q55 0 105.5 -14t93 -39.5t76.5 -61t57 -79.5l-140 -76q-30 54 -77.5 85t-114.5 31q-44 0 -81.5 -17t-65.5 -46.5t-44 -68t-16 -81.5t16 -81.5t44 -68t65.5 -46.5t81.5 -17
q67 0 114.5 31t77.5 85l140 -76q-23 -44 -57 -79.5t-76.5 -61t-93 -39.5t-105.5 -14zM419 905h165l-125 -137h-110z" />
    <glyph glyph-name="Ccaron" unicode="&#x10c;" horiz-adv-x="752" 
d="M402 -12q-76 0 -143 29t-116.5 79t-78.5 116.5t-29 142.5t29 142.5t78.5 116.5t116.5 79t143 29q55 0 105.5 -14t93 -39.5t76.5 -61t57 -79.5l-140 -76q-30 54 -77.5 85t-114.5 31q-44 0 -81.5 -17t-65.5 -46.5t-44 -68t-16 -81.5t16 -81.5t44 -68t65.5 -46.5t81.5 -17
q67 0 114.5 31t77.5 85l140 -76q-23 -44 -57 -79.5t-76.5 -61t-93 -39.5t-105.5 -14zM219 905h133l50 -49l49 49h134l-114 -137h-138z" />
    <glyph glyph-name="Ccircumflex" unicode="&#x108;" horiz-adv-x="752" 
d="M402 -12q-76 0 -143 29t-116.5 79t-78.5 116.5t-29 142.5t29 142.5t78.5 116.5t116.5 79t143 29q55 0 105.5 -14t93 -39.5t76.5 -61t57 -79.5l-140 -76q-30 54 -77.5 85t-114.5 31q-44 0 -81.5 -17t-65.5 -46.5t-44 -68t-16 -81.5t16 -81.5t44 -68t65.5 -46.5t81.5 -17
q67 0 114.5 31t77.5 85l140 -76q-23 -44 -57 -79.5t-76.5 -61t-93 -39.5t-105.5 -14zM333 905h138l114 -137h-134l-49 48l-50 -48h-133z" />
    <glyph glyph-name="Cdotaccent" unicode="&#x10a;" horiz-adv-x="752" 
d="M402 -12q-76 0 -143 29t-116.5 79t-78.5 116.5t-29 142.5t29 142.5t78.5 116.5t116.5 79t143 29q55 0 105.5 -14t93 -39.5t76.5 -61t57 -79.5l-140 -76q-30 54 -77.5 85t-114.5 31q-44 0 -81.5 -17t-65.5 -46.5t-44 -68t-16 -81.5t16 -81.5t44 -68t65.5 -46.5t81.5 -17
q67 0 114.5 31t77.5 85l140 -76q-23 -44 -57 -79.5t-76.5 -61t-93 -39.5t-105.5 -14zM402 768q-17 0 -31.5 6.5t-25.5 17.5t-17.5 25.5t-6.5 30.5q0 34 23.5 57.5t57.5 23.5q33 0 56.5 -23.5t23.5 -57.5q0 -16 -6.5 -30.5t-17 -25.5t-25.5 -17.5t-31 -6.5z" />
    <glyph glyph-name="Dcaron" unicode="&#x10e;" horiz-adv-x="715" 
d="M75 710h242q75 0 141 -28t115 -76t77.5 -112.5t28.5 -138.5t-28.5 -138.5t-77.5 -112.5t-115 -76t-141 -28h-242v710zM317 146q45 0 82 16.5t63.5 45t41 66.5t14.5 81t-14.5 81t-41 66.5t-63.5 45t-82 16.5h-83v-418h83zM154 905h133l50 -49l49 49h134l-114 -137h-138z
" />
    <glyph glyph-name="Dcroat" unicode="&#x110;" horiz-adv-x="732" 
d="M92 710h242q75 0 141 -28t115 -76t77.5 -112.5t28.5 -138.5t-28.5 -138.5t-77.5 -112.5t-115 -76t-141 -28h-242v710zM334 146q45 0 82 16.5t63.5 45t41 66.5t14.5 81t-14.5 81t-41 66.5t-63.5 45t-82 16.5h-83v-418h83zM20 427h351v-138h-351v138z" />
    <glyph glyph-name="Ebreve" unicode="&#x114;" horiz-adv-x="571" 
d="M75 710h450v-152h-291v-127h231v-152h-231v-127h291v-152h-450v710zM299 747q-37 0 -69.5 12.5t-56.5 36t-38 57t-14 74.5h86q0 -47 27 -70t65 -23t65 23t27 70h86q0 -41 -14 -74.5t-38 -57t-56.5 -36t-69.5 -12.5z" />
    <glyph glyph-name="Ecaron" unicode="&#x11a;" horiz-adv-x="571" 
d="M75 710h450v-152h-291v-127h231v-152h-231v-127h291v-152h-450v710zM116 905h133l50 -49l49 49h134l-114 -137h-138z" />
    <glyph glyph-name="Emacron" unicode="&#x112;" horiz-adv-x="571" 
d="M75 710h450v-152h-291v-127h231v-152h-231v-127h291v-152h-450v710zM125 891h348v-104h-348v104z" />
    <glyph glyph-name="Eogonek" unicode="&#x118;" horiz-adv-x="571" 
d="M75 710h450v-152h-291v-127h231v-152h-231v-127h291v-152h-450v710zM423 -204q-23 0 -43.5 6.5t-36 18.5t-24.5 29.5t-9 39.5q0 31 15 56.5t41 53.5h159q-38 -17 -58.5 -35.5t-20.5 -36.5q0 -13 8.5 -18t15.5 -5q8 0 13.5 2t12.5 7l43 -85q-22 -14 -51.5 -23.5
t-64.5 -9.5z" />
    <glyph glyph-name="Edotaccent" unicode="&#x116;" horiz-adv-x="571" 
d="M75 710h450v-152h-291v-127h231v-152h-231v-127h291v-152h-450v710zM299 768q-17 0 -31.5 6.5t-25.5 17.5t-17.5 25.5t-6.5 30.5q0 34 23.5 57.5t57.5 23.5q33 0 56.5 -23.5t23.5 -57.5q0 -16 -6.5 -30.5t-17 -25.5t-25.5 -17.5t-31 -6.5z" />
    <glyph glyph-name="Gbreve" unicode="&#x11e;" horiz-adv-x="763" 
d="M422 -12q-83 0 -153.5 28t-122.5 77.5t-81 116.5t-29 145q0 76 27.5 142.5t77 116.5t118 79t151.5 29q95 0 167.5 -32t123.5 -89l-112 -109q-30 32 -74 54t-105 22q-48 0 -87.5 -17t-67.5 -46.5t-43.5 -68t-15.5 -81.5q0 -45 15.5 -84t44.5 -67.5t70.5 -45t93.5 -16.5
q42 0 78.5 8t59.5 26v105h-139v149h294v-337q-48 -54 -126 -79.5t-165 -25.5zM413 747q-37 0 -69.5 12.5t-56.5 36t-38 57t-14 74.5h86q0 -47 27 -70t65 -23t65 23t27 70h86q0 -41 -14 -74.5t-38 -57t-56.5 -36t-69.5 -12.5z" />
    <glyph glyph-name="Gcircumflex" unicode="&#x11c;" horiz-adv-x="763" 
d="M422 -12q-83 0 -153.5 28t-122.5 77.5t-81 116.5t-29 145q0 76 27.5 142.5t77 116.5t118 79t151.5 29q95 0 167.5 -32t123.5 -89l-112 -109q-30 32 -74 54t-105 22q-48 0 -87.5 -17t-67.5 -46.5t-43.5 -68t-15.5 -81.5q0 -45 15.5 -84t44.5 -67.5t70.5 -45t93.5 -16.5
q42 0 78.5 8t59.5 26v105h-139v149h294v-337q-48 -54 -126 -79.5t-165 -25.5zM344 905h138l114 -137h-134l-49 48l-50 -48h-133z" />
    <glyph glyph-name="uni0122" unicode="&#x122;" horiz-adv-x="763" 
d="M422 -12q-83 0 -153.5 28t-122.5 77.5t-81 116.5t-29 145q0 76 27.5 142.5t77 116.5t118 79t151.5 29q95 0 167.5 -32t123.5 -89l-112 -109q-30 32 -74 54t-105 22q-48 0 -87.5 -17t-67.5 -46.5t-43.5 -68t-15.5 -81.5q0 -45 15.5 -84t44.5 -67.5t70.5 -45t93.5 -16.5
q42 0 78.5 8t59.5 26v105h-139v149h294v-337q-48 -54 -126 -79.5t-165 -25.5zM377 -335l34 117h-58v139h141v-139l-50 -117h-67z" />
    <glyph glyph-name="Gdotaccent" unicode="&#x120;" horiz-adv-x="763" 
d="M422 -12q-83 0 -153.5 28t-122.5 77.5t-81 116.5t-29 145q0 76 27.5 142.5t77 116.5t118 79t151.5 29q95 0 167.5 -32t123.5 -89l-112 -109q-30 32 -74 54t-105 22q-48 0 -87.5 -17t-67.5 -46.5t-43.5 -68t-15.5 -81.5q0 -45 15.5 -84t44.5 -67.5t70.5 -45t93.5 -16.5
q42 0 78.5 8t59.5 26v105h-139v149h294v-337q-48 -54 -126 -79.5t-165 -25.5zM413 768q-17 0 -31.5 6.5t-25.5 17.5t-17.5 25.5t-6.5 30.5q0 34 23.5 57.5t57.5 23.5q33 0 56.5 -23.5t23.5 -57.5q0 -16 -6.5 -30.5t-17 -25.5t-25.5 -17.5t-31 -6.5z" />
    <glyph glyph-name="Hbar" unicode="&#x126;" horiz-adv-x="790" 
d="M93 710h159v-278h286v278h159v-710h-159v281h-286v-281h-159v710zM21 626h748v-108h-748v108z" />
    <glyph glyph-name="Hcircumflex" unicode="&#x124;" horiz-adv-x="754" 
d="M75 710h159v-278h286v278h159v-710h-159v281h-286v-281h-159v710zM308 905h138l114 -137h-134l-49 48l-50 -48h-133z" />
    <glyph glyph-name="Ibreve" unicode="&#x12c;" horiz-adv-x="309" 
d="M75 710h159v-710h-159v710zM155 747q-37 0 -69.5 12.5t-56.5 36t-38 57t-14 74.5h86q0 -47 27 -70t65 -23t65 23t27 70h86q0 -41 -14 -74.5t-38 -57t-56.5 -36t-69.5 -12.5z" />
    <glyph glyph-name="Idotaccent" unicode="&#x130;" horiz-adv-x="309" 
d="M75 710h159v-710h-159v710zM155 768q-17 0 -31.5 6.5t-25.5 17.5t-17.5 25.5t-6.5 30.5q0 34 23.5 57.5t57.5 23.5q33 0 56.5 -23.5t23.5 -57.5q0 -16 -6.5 -30.5t-17 -25.5t-25.5 -17.5t-31 -6.5z" />
    <glyph glyph-name="Imacron" unicode="&#x12a;" horiz-adv-x="309" 
d="M75 710h159v-710h-159v710zM-19 891h348v-104h-348v104z" />
    <glyph glyph-name="Iogonek" unicode="&#x12e;" horiz-adv-x="309" 
d="M75 710h159v-710h-159v710zM132 -204q-23 0 -43.5 6.5t-36 18.5t-24.5 29.5t-9 39.5q0 31 15 56.5t41 53.5h159q-38 -17 -58.5 -35.5t-20.5 -36.5q0 -13 8.5 -18t15.5 -5q8 0 13.5 2t12.5 7l43 -85q-22 -14 -51.5 -23.5t-64.5 -9.5z" />
    <glyph glyph-name="Itilde" unicode="&#x128;" horiz-adv-x="309" 
d="M75 710h159v-710h-159v710zM-34 804q4 28 15.5 50t28 37t36.5 22.5t41 7.5q23 0 42.5 -7.5t35.5 -16t29.5 -16t25.5 -7.5q20 0 29 12.5t15 35.5h83l-4 -28q-4 -29 -16 -50.5t-28.5 -36.5t-36.5 -22.5t-41 -7.5q-23 0 -42.5 7.5t-35.5 16t-29.5 16t-24.5 7.5
q-20 0 -29 -12.5t-16 -35.5h-82z" />
    <glyph glyph-name="uni1ECA" unicode="&#x1eca;" horiz-adv-x="309" 
d="M75 710h159v-710h-159v710zM155 -227q-34 0 -57.5 23.5t-23.5 56.5t23.5 56.5t57.5 23.5q33 0 56.5 -23.5t23.5 -56.5t-23.5 -56.5t-56.5 -23.5z" />
    <glyph glyph-name="Jcircumflex" unicode="&#x134;" horiz-adv-x="471" 
d="M177 -12q-34 0 -61.5 6t-49.5 15.5t-38.5 21.5t-28.5 23l88 118q39 -36 83 -36q29 0 50.5 16.5t21.5 51.5v506h159v-516q0 -54 -19 -93t-50.5 -64t-72 -37t-82.5 -12zM252 905h138l114 -137h-134l-49 48l-50 -48h-133z" />
    <glyph glyph-name="uni0136" unicode="&#x136;" horiz-adv-x="700" 
d="M233 318v-318h-158v710h158v-297l241 297h195l-280 -341l337 -369h-204zM330 -335l34 117h-58v139h141v-139l-50 -117h-67z" />
    <glyph glyph-name="Lacute" unicode="&#x139;" horiz-adv-x="552" 
d="M75 710h159v-558h294v-152h-453v710zM175 905h165l-125 -137h-110z" />
    <glyph glyph-name="Lcaron" unicode="&#x13d;" horiz-adv-x="554" 
d="M75 710h159v-558h294v-152h-453v710zM316 730h151l-69 -160h-102z" />
    <glyph glyph-name="uni013B" unicode="&#x13b;" horiz-adv-x="552" 
d="M75 710h159v-558h294v-152h-453v710zM256 -335l34 117h-58v139h141v-139l-50 -117h-67z" />
    <glyph glyph-name="Ldot" unicode="&#x13f;" horiz-adv-x="560" 
d="M75 710h159v-558h294v-152h-453v710zM425 351q-34 0 -57.5 23.5t-23.5 56.5q0 34 23.5 57.5t57.5 23.5q33 0 56.5 -23.5t23.5 -57.5q0 -33 -23.5 -56.5t-56.5 -23.5z" />
    <glyph glyph-name="Lslash" unicode="&#x141;" horiz-adv-x="583" 
d="M106 710h159v-558h294v-152h-453v710zM34 213v124l360 206v-125z" />
    <glyph glyph-name="Nacute" unicode="&#x143;" horiz-adv-x="792" 
d="M580 0l-346 439v-439h-159v710h137l345 -439v439h160v-710h-137zM413 905h165l-125 -137h-110z" />
    <glyph glyph-name="Ncaron" unicode="&#x147;" horiz-adv-x="792" 
d="M580 0l-346 439v-439h-159v710h137l345 -439v439h160v-710h-137zM213 905h133l50 -49l49 49h134l-114 -137h-138z" />
    <glyph glyph-name="uni0145" unicode="&#x145;" horiz-adv-x="792" 
d="M580 0l-346 439v-439h-159v710h137l345 -439v439h160v-710h-137zM348 -335l34 117h-58v139h141v-139l-50 -117h-67z" />
    <glyph glyph-name="OE" unicode="&#x152;" horiz-adv-x="1104" 
d="M402 142q43 0 80.5 17t65.5 46.5t44 68t16 81.5t-16 81.5t-44 68t-65.5 46.5t-80.5 17q-44 0 -81.5 -17t-65.5 -46.5t-44 -68t-16 -81.5t16 -81.5t44 -68t65.5 -46.5t81.5 -17zM608 56q-38 -36 -94 -52t-112 -16q-76 0 -143 29t-116.5 79t-78.5 116.5t-29 142.5t29 142.5
t78.5 116.5t116.5 79t143 29q56 0 112 -16t94 -52v56h450v-152h-290v-127h230v-152h-230v-127h290v-152h-450v56z" />
    <glyph glyph-name="Obreve" unicode="&#x14e;" horiz-adv-x="804" 
d="M402 142q43 0 80.5 17t65.5 46.5t44 68t16 81.5t-16 81.5t-44 68t-65.5 46.5t-80.5 17q-44 0 -81.5 -17t-65.5 -46.5t-44 -68t-16 -81.5t16 -81.5t44 -68t65.5 -46.5t81.5 -17zM402 -12q-76 0 -143 29t-116.5 79t-78.5 116.5t-29 142.5t29 142.5t78.5 116.5t116.5 79
t143 29t142.5 -29t116.5 -79t79 -116.5t29 -142.5t-29 -142.5t-79 -116.5t-116.5 -79t-142.5 -29zM402 747q-37 0 -69.5 12.5t-56.5 36t-38 57t-14 74.5h86q0 -47 27 -70t65 -23t65 23t27 70h86q0 -41 -14 -74.5t-38 -57t-56.5 -36t-69.5 -12.5z" />
    <glyph glyph-name="Ohungarumlaut" unicode="&#x150;" horiz-adv-x="804" 
d="M402 142q43 0 80.5 17t65.5 46.5t44 68t16 81.5t-16 81.5t-44 68t-65.5 46.5t-80.5 17q-44 0 -81.5 -17t-65.5 -46.5t-44 -68t-16 -81.5t16 -81.5t44 -68t65.5 -46.5t81.5 -17zM402 -12q-76 0 -143 29t-116.5 79t-78.5 116.5t-29 142.5t29 142.5t78.5 116.5t116.5 79
t143 29t142.5 -29t116.5 -79t79 -116.5t29 -142.5t-29 -142.5t-79 -116.5t-116.5 -79t-142.5 -29zM320 905h160l-114 -137h-98zM510 905h160l-114 -137h-98z" />
    <glyph glyph-name="Omacron" unicode="&#x14c;" horiz-adv-x="804" 
d="M402 142q43 0 80.5 17t65.5 46.5t44 68t16 81.5t-16 81.5t-44 68t-65.5 46.5t-80.5 17q-44 0 -81.5 -17t-65.5 -46.5t-44 -68t-16 -81.5t16 -81.5t44 -68t65.5 -46.5t81.5 -17zM402 -12q-76 0 -143 29t-116.5 79t-78.5 116.5t-29 142.5t29 142.5t78.5 116.5t116.5 79
t143 29t142.5 -29t116.5 -79t79 -116.5t29 -142.5t-29 -142.5t-79 -116.5t-116.5 -79t-142.5 -29zM228 891h348v-104h-348v104z" />
    <glyph glyph-name="uni1ECC" unicode="&#x1ecc;" horiz-adv-x="804" 
d="M402 142q43 0 80.5 17t65.5 46.5t44 68t16 81.5t-16 81.5t-44 68t-65.5 46.5t-80.5 17q-44 0 -81.5 -17t-65.5 -46.5t-44 -68t-16 -81.5t16 -81.5t44 -68t65.5 -46.5t81.5 -17zM402 -12q-76 0 -143 29t-116.5 79t-78.5 116.5t-29 142.5t29 142.5t78.5 116.5t116.5 79
t143 29t142.5 -29t116.5 -79t79 -116.5t29 -142.5t-29 -142.5t-79 -116.5t-116.5 -79t-142.5 -29zM402 -227q-34 0 -57.5 23.5t-23.5 56.5t23.5 56.5t57.5 23.5q33 0 56.5 -23.5t23.5 -56.5t-23.5 -56.5t-56.5 -23.5z" />
    <glyph glyph-name="Racute" unicode="&#x154;" horiz-adv-x="662" 
d="M75 710h280q50 0 91 -17t69.5 -46t44 -68t15.5 -83q0 -69 -35.5 -114t-103.5 -69l251 -313h-191l-237 293h-25v-293h-159v710zM336 428q35 0 58 18.5t23 49.5q0 32 -23 50t-58 18h-102v-136h102zM318 905h165l-125 -137h-110z" />
    <glyph glyph-name="Rcaron" unicode="&#x158;" horiz-adv-x="662" 
d="M75 710h280q50 0 91 -17t69.5 -46t44 -68t15.5 -83q0 -69 -35.5 -114t-103.5 -69l251 -313h-191l-237 293h-25v-293h-159v710zM336 428q35 0 58 18.5t23 49.5q0 32 -23 50t-58 18h-102v-136h102zM118 905h133l50 -49l49 49h134l-114 -137h-138z" />
    <glyph glyph-name="uni0156" unicode="&#x156;" horiz-adv-x="662" 
d="M75 710h280q50 0 91 -17t69.5 -46t44 -68t15.5 -83q0 -69 -35.5 -114t-103.5 -69l251 -313h-191l-237 293h-25v-293h-159v710zM336 428q35 0 58 18.5t23 49.5q0 32 -23 50t-58 18h-102v-136h102zM318 -335l34 117h-58v139h141v-139l-50 -117h-67z" />
    <glyph glyph-name="Sacute" unicode="&#x15a;" horiz-adv-x="574" 
d="M286 -12q-85 0 -153 33.5t-110 93.5l122 103q26 -38 67 -59.5t80 -21.5q40 0 63 16.5t23 42.5q0 27 -22.5 47t-76.5 38l-50 17q-87 29 -133 80.5t-46 124.5q0 52 18.5 92.5t51 68.5t77.5 43t98 15q65 0 122 -22t107 -76l-104 -110q-25 30 -57 44.5t-66 14.5
q-16 0 -31.5 -3t-27.5 -10t-19.5 -17t-7.5 -24q0 -29 26.5 -45.5t83.5 -36.5l50 -18q77 -28 123.5 -80t45.5 -132q0 -48 -19 -88.5t-52.5 -69.5t-80 -45t-102.5 -16zM314 905h165l-125 -137h-110z" />
    <glyph glyph-name="Scaron" unicode="&#x160;" horiz-adv-x="574" 
d="M286 -12q-85 0 -153 33.5t-110 93.5l122 103q26 -38 67 -59.5t80 -21.5q40 0 63 16.5t23 42.5q0 27 -22.5 47t-76.5 38l-50 17q-87 29 -133 80.5t-46 124.5q0 52 18.5 92.5t51 68.5t77.5 43t98 15q65 0 122 -22t107 -76l-104 -110q-25 30 -57 44.5t-66 14.5
q-16 0 -31.5 -3t-27.5 -10t-19.5 -17t-7.5 -24q0 -29 26.5 -45.5t83.5 -36.5l50 -18q77 -28 123.5 -80t45.5 -132q0 -48 -19 -88.5t-52.5 -69.5t-80 -45t-102.5 -16zM114 905h133l50 -49l49 49h134l-114 -137h-138z" />
    <glyph glyph-name="Scedilla" unicode="&#x15e;" horiz-adv-x="574" 
d="M286 -12q-85 0 -153 33.5t-110 93.5l122 103q26 -38 67 -59.5t80 -21.5q40 0 63 16.5t23 42.5q0 27 -22.5 47t-76.5 38l-50 17q-87 29 -133 80.5t-46 124.5q0 52 18.5 92.5t51 68.5t77.5 43t98 15q65 0 122 -22t107 -76l-104 -110q-25 30 -57 44.5t-66 14.5
q-16 0 -31.5 -3t-27.5 -10t-19.5 -17t-7.5 -24q0 -29 26.5 -45.5t83.5 -36.5l50 -18q77 -28 123.5 -80t45.5 -132q0 -48 -19 -88.5t-52.5 -69.5t-80 -45t-102.5 -16zM181 -124q30 -17 68 -17q6 0 14.5 1t16 4t13 8t5.5 14q0 14 -10.5 19t-21.5 5q-13 0 -24 -3.5t-19 -8.5
l-36 19l52 86h64l-28 -47q7 5 20 8.5t27 3.5q34 0 58 -21.5t24 -54.5q0 -22 -11.5 -39.5t-30.5 -30t-44 -19.5t-51 -7q-23 0 -49.5 3t-50.5 13z" />
    <glyph glyph-name="Scircumflex" unicode="&#x15c;" horiz-adv-x="574" 
d="M286 -12q-85 0 -153 33.5t-110 93.5l122 103q26 -38 67 -59.5t80 -21.5q40 0 63 16.5t23 42.5q0 27 -22.5 47t-76.5 38l-50 17q-87 29 -133 80.5t-46 124.5q0 52 18.5 92.5t51 68.5t77.5 43t98 15q65 0 122 -22t107 -76l-104 -110q-25 30 -57 44.5t-66 14.5
q-16 0 -31.5 -3t-27.5 -10t-19.5 -17t-7.5 -24q0 -29 26.5 -45.5t83.5 -36.5l50 -18q77 -28 123.5 -80t45.5 -132q0 -48 -19 -88.5t-52.5 -69.5t-80 -45t-102.5 -16zM228 905h138l114 -137h-134l-49 48l-50 -48h-133z" />
    <glyph glyph-name="uni0218" unicode="&#x218;" horiz-adv-x="574" 
d="M286 -12q-85 0 -153 33.5t-110 93.5l122 103q26 -38 67 -59.5t80 -21.5q40 0 63 16.5t23 42.5q0 27 -22.5 47t-76.5 38l-50 17q-87 29 -133 80.5t-46 124.5q0 52 18.5 92.5t51 68.5t77.5 43t98 15q65 0 122 -22t107 -76l-104 -110q-25 30 -57 44.5t-66 14.5
q-16 0 -31.5 -3t-27.5 -10t-19.5 -17t-7.5 -24q0 -29 26.5 -45.5t83.5 -36.5l50 -18q77 -28 123.5 -80t45.5 -132q0 -48 -19 -88.5t-52.5 -69.5t-80 -45t-102.5 -16zM240 -335l34 117h-58v139h141v-139l-50 -117h-67z" />
    <glyph glyph-name="Tcaron" unicode="&#x164;" horiz-adv-x="568" 
d="M203 558h-181v152h524v-152h-183v-558h-160v558zM101 905h133l50 -49l49 49h134l-114 -137h-138z" />
    <glyph glyph-name="uni0162" unicode="&#x162;" horiz-adv-x="568" 
d="M203 558h-181v152h524v-152h-183v-558h-160v558zM238 -335l34 117h-58v139h141v-139l-50 -117h-67z" />
    <glyph glyph-name="uni021A" unicode="&#x21a;" horiz-adv-x="568" 
d="M203 558h-181v152h524v-152h-183v-558h-160v558zM238 -335l34 117h-58v139h141v-139l-50 -117h-67z" />
    <glyph glyph-name="Ubreve" unicode="&#x16c;" horiz-adv-x="718" 
d="M359 -12q-64 0 -117.5 21t-92.5 59t-60.5 92.5t-21.5 120.5v429h159v-431q0 -64 36.5 -100.5t96.5 -36.5t96.5 36.5t36.5 100.5v431h159v-429q0 -66 -21.5 -120.5t-60.5 -92.5t-92.5 -59t-117.5 -21zM359 747q-37 0 -69.5 12.5t-56.5 36t-38 57t-14 74.5h86q0 -47 27 -70
t65 -23t65 23t27 70h86q0 -41 -14 -74.5t-38 -57t-56.5 -36t-69.5 -12.5z" />
    <glyph glyph-name="Uhungarumlaut" unicode="&#x170;" horiz-adv-x="718" 
d="M359 -12q-64 0 -117.5 21t-92.5 59t-60.5 92.5t-21.5 120.5v429h159v-431q0 -64 36.5 -100.5t96.5 -36.5t96.5 36.5t36.5 100.5v431h159v-429q0 -66 -21.5 -120.5t-60.5 -92.5t-92.5 -59t-117.5 -21zM277 905h160l-114 -137h-98zM467 905h160l-114 -137h-98z" />
    <glyph glyph-name="Umacron" unicode="&#x16a;" horiz-adv-x="718" 
d="M359 -12q-64 0 -117.5 21t-92.5 59t-60.5 92.5t-21.5 120.5v429h159v-431q0 -64 36.5 -100.5t96.5 -36.5t96.5 36.5t36.5 100.5v431h159v-429q0 -66 -21.5 -120.5t-60.5 -92.5t-92.5 -59t-117.5 -21zM185 891h348v-104h-348v104z" />
    <glyph glyph-name="Uogonek" unicode="&#x172;" horiz-adv-x="718" 
d="M410 -204q-23 0 -43 6t-35.5 18t-25 29t-9.5 38q0 24 10 50.5t35 51.5q-65 4 -116.5 27.5t-86.5 61.5t-53.5 90t-18.5 113v429h159v-431q0 -64 36.5 -100.5t96.5 -36.5t96.5 36.5t36.5 100.5v431h159v-429q0 -78 -27.5 -134.5t-75.5 -98.5q-32 -27 -53.5 -45.5t-35 -32
t-19.5 -24t-6 -20.5q0 -12 8 -16.5t15 -4.5q8 0 13.5 2t12.5 7l43 -85q-22 -14 -51.5 -23.5t-64.5 -9.5z" />
    <glyph glyph-name="Uring" unicode="&#x16e;" horiz-adv-x="718" 
d="M359 -12q-64 0 -117.5 21t-92.5 59t-60.5 92.5t-21.5 120.5v429h159v-431q0 -64 36.5 -100.5t96.5 -36.5t96.5 36.5t36.5 100.5v431h159v-429q0 -66 -21.5 -120.5t-60.5 -92.5t-92.5 -59t-117.5 -21zM360 753q-25 0 -47 9.5t-38.5 26t-26.5 38t-10 46.5t10 46.5t26.5 38
t38.5 26t47 9.5t47 -9.5t38.5 -26t26.5 -38t10 -46.5t-10 -46.5t-26.5 -38t-38.5 -26t-47 -9.5zM360 818q23 0 39.5 16t16.5 39t-16.5 39t-39.5 16t-39.5 -16t-16.5 -39t16.5 -39t39.5 -16z" />
    <glyph glyph-name="Utilde" unicode="&#x168;" horiz-adv-x="718" 
d="M359 -12q-64 0 -117.5 21t-92.5 59t-60.5 92.5t-21.5 120.5v429h159v-431q0 -64 36.5 -100.5t96.5 -36.5t96.5 36.5t36.5 100.5v431h159v-429q0 -66 -21.5 -120.5t-60.5 -92.5t-92.5 -59t-117.5 -21zM170 804q4 28 15.5 50t28 37t36.5 22.5t41 7.5q23 0 42.5 -7.5
t35.5 -16t29.5 -16t25.5 -7.5q20 0 29 12.5t15 35.5h83l-4 -28q-4 -29 -16 -50.5t-28.5 -36.5t-36.5 -22.5t-41 -7.5q-23 0 -42.5 7.5t-35.5 16t-29.5 16t-24.5 7.5q-20 0 -29 -12.5t-16 -35.5h-82z" />
    <glyph glyph-name="uni1EE4" unicode="&#x1ee4;" horiz-adv-x="718" 
d="M359 -12q-64 0 -117.5 21t-92.5 59t-60.5 92.5t-21.5 120.5v429h159v-431q0 -64 36.5 -100.5t96.5 -36.5t96.5 36.5t36.5 100.5v431h159v-429q0 -66 -21.5 -120.5t-60.5 -92.5t-92.5 -59t-117.5 -21zM359 -227q-34 0 -57.5 23.5t-23.5 56.5t23.5 56.5t57.5 23.5
q33 0 56.5 -23.5t23.5 -56.5t-23.5 -56.5t-56.5 -23.5z" />
    <glyph glyph-name="Wacute" unicode="&#x1e82;" horiz-adv-x="1026" 
d="M7 710h168l129 -452l138 452h140l138 -453l129 453h170l-221 -710h-144l-142 467l-141 -467h-143zM531 905h165l-125 -137h-110z" />
    <glyph glyph-name="Wcircumflex" unicode="&#x174;" horiz-adv-x="1026" 
d="M7 710h168l129 -452l138 452h140l138 -453l129 453h170l-221 -710h-144l-142 467l-141 -467h-143zM445 905h138l114 -137h-134l-49 48l-50 -48h-133z" />
    <glyph glyph-name="Wdieresis" unicode="&#x1e84;" horiz-adv-x="1026" 
d="M7 710h168l129 -452l138 452h140l138 -453l129 453h170l-221 -710h-144l-142 467l-141 -467h-143zM396 768q-17 0 -31.5 6.5t-25.5 17.5t-17.5 25.5t-6.5 30.5q0 34 23.5 57.5t57.5 23.5q16 0 30.5 -6.5t25 -17.5t17 -25.5t6.5 -31.5q0 -16 -6.5 -30.5t-17 -25.5
t-25 -17.5t-30.5 -6.5zM633 768q-17 0 -31.5 6.5t-25 17.5t-17 25.5t-6.5 30.5q0 34 23.5 57.5t56.5 23.5t56.5 -23.5t23.5 -57.5q0 -16 -6.5 -30.5t-17 -25.5t-25.5 -17.5t-31 -6.5z" />
    <glyph glyph-name="Wgrave" unicode="&#x1e80;" horiz-adv-x="1026" 
d="M7 710h168l129 -452l138 452h140l138 -453l129 453h170l-221 -710h-144l-142 467l-141 -467h-143zM457 768l-125 137h165l70 -137h-110z" />
    <glyph glyph-name="Ycircumflex" unicode="&#x176;" horiz-adv-x="694" 
d="M267 299l-259 411h185l153 -256l155 256h185l-259 -412v-298h-160v299zM278 905h138l114 -137h-134l-49 48l-50 -48h-133z" />
    <glyph glyph-name="Ydieresis" unicode="&#x178;" horiz-adv-x="694" 
d="M267 299l-259 411h185l153 -256l155 256h185l-259 -412v-298h-160v299zM229 768q-17 0 -31.5 6.5t-25.5 17.5t-17.5 25.5t-6.5 30.5q0 34 23.5 57.5t57.5 23.5q16 0 30.5 -6.5t25 -17.5t17 -25.5t6.5 -31.5q0 -16 -6.5 -30.5t-17 -25.5t-25 -17.5t-30.5 -6.5zM466 768
q-17 0 -31.5 6.5t-25 17.5t-17 25.5t-6.5 30.5q0 34 23.5 57.5t56.5 23.5t56.5 -23.5t23.5 -57.5q0 -16 -6.5 -30.5t-17 -25.5t-25.5 -17.5t-31 -6.5z" />
    <glyph glyph-name="Ygrave" unicode="&#x1ef2;" horiz-adv-x="694" 
d="M267 299l-259 411h185l153 -256l155 256h185l-259 -412v-298h-160v299zM290 768l-125 137h165l70 -137h-110z" />
    <glyph glyph-name="uni0232" unicode="&#x232;" horiz-adv-x="694" 
d="M267 299l-259 411h185l153 -256l155 256h185l-259 -412v-298h-160v299zM173 891h348v-104h-348v104z" />
    <glyph glyph-name="Zacute" unicode="&#x179;" horiz-adv-x="626" 
d="M39 109l326 449h-321v152h537v-109l-327 -449h333v-152h-548v109zM330 905h165l-125 -137h-110z" />
    <glyph glyph-name="Zcaron" unicode="&#x17d;" horiz-adv-x="626" 
d="M39 109l326 449h-321v152h537v-109l-327 -449h333v-152h-548v109zM130 905h133l50 -49l49 49h134l-114 -137h-138z" />
    <glyph glyph-name="Zdotaccent" unicode="&#x17b;" horiz-adv-x="626" 
d="M39 109l326 449h-321v152h537v-109l-327 -449h333v-152h-548v109zM313 768q-17 0 -31.5 6.5t-25.5 17.5t-17.5 25.5t-6.5 30.5q0 34 23.5 57.5t57.5 23.5q33 0 56.5 -23.5t23.5 -57.5q0 -16 -6.5 -30.5t-17 -25.5t-25.5 -17.5t-31 -6.5z" />
    <glyph glyph-name="uni1E9E" unicode="&#x1e9e;" horiz-adv-x="652" 
d="M75 710h496v-108l-91 -143q64 -26 99 -79t35 -132q0 -59 -19.5 -105t-54 -77.5t-82.5 -48.5t-105 -17h-48v152h43q42 0 73.5 24t31.5 72t-31.5 72t-73.5 24h-43v108l72 113h-143v-565h-159v710z" />
    <glyph glyph-name="abreve" unicode="&#x103;" horiz-adv-x="609" 
d="M278 -11q-56 0 -101 21t-77.5 57t-50 83.5t-17.5 99.5t17.5 99.5t50 83.5t77.5 57t101 21q38 0 68 -12t50 -30v31h151v-500h-151v32q-20 -19 -50 -31t-68 -12zM301 126q35 0 57 13.5t38 34.5v153q-16 20 -38 33.5t-57 13.5q-25 0 -46 -10t-36 -27t-23 -39.5t-8 -47.5
t8 -47.5t23 -39.5t36 -27t46 -10zM335 545q-37 0 -69.5 12.5t-56.5 36t-38 56t-14 73.5v7h86v-7q0 -46 27 -69t65 -23t65 23t27 69v7h86v-7q0 -41 -14 -73.5t-38 -56t-56.5 -36t-69.5 -12.5z" />
    <glyph glyph-name="amacron" unicode="&#x101;" horiz-adv-x="609" 
d="M278 -11q-56 0 -101 21t-77.5 57t-50 83.5t-17.5 99.5t17.5 99.5t50 83.5t77.5 57t101 21q38 0 68 -12t50 -30v31h151v-500h-151v32q-20 -19 -50 -31t-68 -12zM301 126q35 0 57 13.5t38 34.5v153q-16 20 -38 33.5t-57 13.5q-25 0 -46 -10t-36 -27t-23 -39.5t-8 -47.5
t8 -47.5t23 -39.5t36 -27t46 -10zM161 710h348v-104h-348v104z" />
    <glyph glyph-name="aogonek" unicode="&#x105;" horiz-adv-x="609" 
d="M278 -11q-56 0 -101 21t-77.5 57t-50 83.5t-17.5 99.5t17.5 99.5t50 83.5t77.5 57t101 21q38 0 68 -12t50 -30v31h151v-500h-151v32q-20 -19 -50 -31t-68 -12zM301 126q35 0 57 13.5t38 34.5v153q-16 20 -38 33.5t-57 13.5q-25 0 -46 -10t-36 -27t-23 -39.5t-8 -47.5
t8 -47.5t23 -39.5t36 -27t46 -10zM450 -204q-50 0 -81 24.5t-31 67.5q0 38 16.5 63.5t41.5 48.5h151q-38 -17 -58.5 -35t-20.5 -40q0 -16 9 -21.5t19 -5.5q11 0 26 9l39 -78q-22 -14 -50.5 -23.5t-60.5 -9.5z" />
    <glyph glyph-name="cacute" unicode="&#x107;" horiz-adv-x="556" 
d="M298 -11q-55 0 -103.5 19.5t-84.5 54t-57 82.5t-21 105t21 105t57 82.5t84.5 54t103.5 19.5q39 0 75 -10.5t67 -30t56 -46t41 -59.5l-132 -70q-14 32 -41.5 53.5t-65.5 21.5q-24 0 -44.5 -9t-36 -24.5t-24.5 -37.5t-9 -49t9 -49t24.5 -37.5t36 -24.5t44.5 -9
q38 0 65.5 21.5t41.5 53.5l132 -70q-16 -33 -41 -59.5t-56 -46t-67 -30t-75 -10.5zM319 730h173l-143 -174h-110z" />
    <glyph glyph-name="ccaron" unicode="&#x10d;" horiz-adv-x="556" 
d="M298 -11q-55 0 -103.5 19.5t-84.5 54t-57 82.5t-21 105t21 105t57 82.5t84.5 54t103.5 19.5q39 0 75 -10.5t67 -30t56 -46t41 -59.5l-132 -70q-14 32 -41.5 53.5t-65.5 21.5q-24 0 -44.5 -9t-36 -24.5t-24.5 -37.5t-9 -49t9 -49t24.5 -37.5t36 -24.5t44.5 -9
q38 0 65.5 21.5t41.5 53.5l132 -70q-16 -33 -41 -59.5t-56 -46t-67 -30t-75 -10.5zM237 730l61 -61l61 61h129l-127 -152h-126l-127 152h129z" />
    <glyph glyph-name="ccircumflex" unicode="&#x109;" horiz-adv-x="556" 
d="M298 -11q-55 0 -103.5 19.5t-84.5 54t-57 82.5t-21 105t21 105t57 82.5t84.5 54t103.5 19.5q39 0 75 -10.5t67 -30t56 -46t41 -59.5l-132 -70q-14 32 -41.5 53.5t-65.5 21.5q-24 0 -44.5 -9t-36 -24.5t-24.5 -37.5t-9 -49t9 -49t24.5 -37.5t36 -24.5t44.5 -9
q38 0 65.5 21.5t41.5 53.5l132 -70q-16 -33 -41 -59.5t-56 -46t-67 -30t-75 -10.5zM235 730h126l127 -152h-129l-61 61l-61 -61h-129z" />
    <glyph glyph-name="cdotaccent" unicode="&#x10b;" horiz-adv-x="556" 
d="M298 -11q-55 0 -103.5 19.5t-84.5 54t-57 82.5t-21 105t21 105t57 82.5t84.5 54t103.5 19.5q39 0 75 -10.5t67 -30t56 -46t41 -59.5l-132 -70q-14 32 -41.5 53.5t-65.5 21.5q-24 0 -44.5 -9t-36 -24.5t-24.5 -37.5t-9 -49t9 -49t24.5 -37.5t36 -24.5t44.5 -9
q38 0 65.5 21.5t41.5 53.5l132 -70q-16 -33 -41 -59.5t-56 -46t-67 -30t-75 -10.5zM298 562q-17 0 -31.5 6.5t-25.5 17t-17.5 25t-6.5 30.5q0 34 23.5 57.5t57.5 23.5q33 0 56.5 -23.5t23.5 -57.5q0 -32 -23.5 -55.5t-56.5 -23.5z" />
    <glyph glyph-name="dcaron" unicode="&#x10f;" horiz-adv-x="609" 
d="M278 -11q-56 0 -101 21t-77.5 57t-50 83.5t-17.5 99.5t17.5 99.5t50 83.5t77.5 57t101 21q38 0 68 -12t50 -30v261h151v-730h-151v32q-20 -19 -50 -31t-68 -12zM301 126q35 0 57 13.5t38 34.5v153q-16 20 -38 33.5t-57 13.5q-25 0 -46 -10t-36 -27t-23 -39.5t-8 -47.5
t8 -47.5t23 -39.5t36 -27t46 -10zM583 730h151l-69 -160h-102z" />
    <glyph glyph-name="dcroat" unicode="&#x111;" horiz-adv-x="609" 
d="M278 -11q-56 0 -101 21t-77.5 57t-50 83.5t-17.5 99.5t17.5 99.5t50 83.5t77.5 57t101 21q38 0 68 -12t50 -30v261h151v-730h-151v32q-20 -19 -50 -31t-68 -12zM301 126q35 0 57 13.5t38 34.5v153q-16 20 -38 33.5t-57 13.5q-25 0 -46 -10t-36 -27t-23 -39.5t-8 -47.5
t8 -47.5t23 -39.5t36 -27t46 -10zM266 564v96h343v-96h-343z" />
    <glyph glyph-name="ebreve" unicode="&#x115;" horiz-adv-x="577" 
d="M298 -11q-55 0 -103.5 18t-84.5 52t-57 82.5t-21 108.5q0 56 19.5 103.5t55 82.5t83.5 55t105 20q49 0 94.5 -15.5t79.5 -46t54.5 -76t20.5 -106.5q0 -10 -0.5 -22.5t-2.5 -30.5h-363q7 -45 43 -66.5t79 -21.5q44 0 75.5 17.5t45.5 39.5l112 -84q-35 -50 -95.5 -80
t-139.5 -30zM394 313q-10 40 -40 57.5t-63 17.5q-17 0 -34 -4t-32 -13t-26.5 -23t-16.5 -35h212zM300 545q-37 0 -69.5 12.5t-56.5 36t-38 56t-14 73.5v7h86v-7q0 -46 27 -69t65 -23t65 23t27 69v7h86v-7q0 -41 -14 -73.5t-38 -56t-56.5 -36t-69.5 -12.5z" />
    <glyph glyph-name="ecaron" unicode="&#x11b;" horiz-adv-x="577" 
d="M298 -11q-55 0 -103.5 18t-84.5 52t-57 82.5t-21 108.5q0 56 19.5 103.5t55 82.5t83.5 55t105 20q49 0 94.5 -15.5t79.5 -46t54.5 -76t20.5 -106.5q0 -10 -0.5 -22.5t-2.5 -30.5h-363q7 -45 43 -66.5t79 -21.5q44 0 75.5 17.5t45.5 39.5l112 -84q-35 -50 -95.5 -80
t-139.5 -30zM394 313q-10 40 -40 57.5t-63 17.5q-17 0 -34 -4t-32 -13t-26.5 -23t-16.5 -35h212zM239 730l61 -61l61 61h129l-127 -152h-126l-127 152h129z" />
    <glyph glyph-name="emacron" unicode="&#x113;" horiz-adv-x="577" 
d="M298 -11q-55 0 -103.5 18t-84.5 52t-57 82.5t-21 108.5q0 56 19.5 103.5t55 82.5t83.5 55t105 20q49 0 94.5 -15.5t79.5 -46t54.5 -76t20.5 -106.5q0 -10 -0.5 -22.5t-2.5 -30.5h-363q7 -45 43 -66.5t79 -21.5q44 0 75.5 17.5t45.5 39.5l112 -84q-35 -50 -95.5 -80
t-139.5 -30zM394 313q-10 40 -40 57.5t-63 17.5q-17 0 -34 -4t-32 -13t-26.5 -23t-16.5 -35h212zM126 710h348v-104h-348v104z" />
    <glyph glyph-name="eogonek" unicode="&#x119;" horiz-adv-x="577" 
d="M431 -204q-54 0 -84 28.5t-30 74.5q0 15 5.5 29.5t14.5 27.5t20.5 24t22.5 19q-36 -10 -82 -10q-55 0 -103.5 18t-84.5 52t-57 82.5t-21 108.5q0 56 19.5 103.5t55 82.5t83.5 55t105 20q49 0 94.5 -15.5t79.5 -46t54.5 -76t20.5 -106.5q0 -10 -0.5 -22.5t-2.5 -30.5h-363
q7 -45 43 -66.5t79 -21.5q44 0 75.5 17.5t45.5 39.5l112 -84q-15 -18 -30.5 -37.5t-28 -40.5t-20.5 -42.5t-8 -41.5t10.5 -29.5t24.5 -9.5q11 0 26 9l40 -78q-22 -15 -54 -24t-62 -9zM291 388q-17 0 -34 -4t-32 -13t-26.5 -23t-16.5 -35h212q-10 40 -40 57.5t-63 17.5z" />
    <glyph glyph-name="edotaccent" unicode="&#x117;" horiz-adv-x="577" 
d="M298 -11q-55 0 -103.5 18t-84.5 52t-57 82.5t-21 108.5q0 56 19.5 103.5t55 82.5t83.5 55t105 20q49 0 94.5 -15.5t79.5 -46t54.5 -76t20.5 -106.5q0 -10 -0.5 -22.5t-2.5 -30.5h-363q7 -45 43 -66.5t79 -21.5q44 0 75.5 17.5t45.5 39.5l112 -84q-35 -50 -95.5 -80
t-139.5 -30zM394 313q-10 40 -40 57.5t-63 17.5q-17 0 -34 -4t-32 -13t-26.5 -23t-16.5 -35h212zM300 562q-17 0 -31.5 6.5t-25.5 17t-17.5 25t-6.5 30.5q0 34 23.5 57.5t57.5 23.5q33 0 56.5 -23.5t23.5 -57.5q0 -32 -23.5 -55.5t-56.5 -23.5z" />
    <glyph glyph-name="gbreve" unicode="&#x11f;" horiz-adv-x="614" 
d="M286 -204q-57 0 -115.5 14.5t-103.5 49.5l79 113q32 -25 68 -35t70 -10q21 0 42 5.5t37.5 17.5t27 30.5t10.5 43.5v29q-20 -19 -50.5 -31t-69.5 -12q-54 0 -99.5 19.5t-79 53t-52 79t-18.5 98.5q0 52 19 98t52 79.5t78.5 53t99.5 19.5q39 0 69.5 -12t50.5 -30v31h151
v-473q0 -68 -24 -113t-62.5 -71t-86 -36.5t-93.5 -10.5zM306 148q35 0 57 13.5t38 34.5v131q-16 20 -38 33.5t-57 13.5q-51 0 -84.5 -31t-33.5 -82t33.5 -82t84.5 -31zM307 545q-37 0 -69.5 12.5t-56.5 36t-38 56t-14 73.5v7h86v-7q0 -46 27 -69t65 -23t65 23t27 69v7h86v-7
q0 -41 -14 -73.5t-38 -56t-56.5 -36t-69.5 -12.5z" />
    <glyph glyph-name="gcircumflex" unicode="&#x11d;" horiz-adv-x="614" 
d="M286 -204q-57 0 -115.5 14.5t-103.5 49.5l79 113q32 -25 68 -35t70 -10q21 0 42 5.5t37.5 17.5t27 30.5t10.5 43.5v29q-20 -19 -50.5 -31t-69.5 -12q-54 0 -99.5 19.5t-79 53t-52 79t-18.5 98.5q0 52 19 98t52 79.5t78.5 53t99.5 19.5q39 0 69.5 -12t50.5 -30v31h151
v-473q0 -68 -24 -113t-62.5 -71t-86 -36.5t-93.5 -10.5zM306 148q35 0 57 13.5t38 34.5v131q-16 20 -38 33.5t-57 13.5q-51 0 -84.5 -31t-33.5 -82t33.5 -82t84.5 -31zM244 730h126l127 -152h-129l-61 61l-61 -61h-129z" />
    <glyph glyph-name="uni0123" unicode="&#x123;" horiz-adv-x="614" 
d="M286 -204q-57 0 -115.5 14.5t-103.5 49.5l79 113q32 -25 68 -35t70 -10q21 0 42 5.5t37.5 17.5t27 30.5t10.5 43.5v29q-20 -19 -50.5 -31t-69.5 -12q-54 0 -99.5 19.5t-79 53t-52 79t-18.5 98.5q0 52 19 98t52 79.5t78.5 53t99.5 19.5q39 0 69.5 -12t50.5 -30v31h151
v-473q0 -68 -24 -113t-62.5 -71t-86 -36.5t-93.5 -10.5zM306 148q35 0 57 13.5t38 34.5v131q-16 20 -38 33.5t-57 13.5q-51 0 -84.5 -31t-33.5 -82t33.5 -82t84.5 -31zM354 829l-33 -117h57v-140h-141v140l50 117h67z" />
    <glyph glyph-name="gdotaccent" unicode="&#x121;" horiz-adv-x="614" 
d="M286 -204q-57 0 -115.5 14.5t-103.5 49.5l79 113q32 -25 68 -35t70 -10q21 0 42 5.5t37.5 17.5t27 30.5t10.5 43.5v29q-20 -19 -50.5 -31t-69.5 -12q-54 0 -99.5 19.5t-79 53t-52 79t-18.5 98.5q0 52 19 98t52 79.5t78.5 53t99.5 19.5q39 0 69.5 -12t50.5 -30v31h151
v-473q0 -68 -24 -113t-62.5 -71t-86 -36.5t-93.5 -10.5zM306 148q35 0 57 13.5t38 34.5v131q-16 20 -38 33.5t-57 13.5q-51 0 -84.5 -31t-33.5 -82t33.5 -82t84.5 -31zM307 562q-17 0 -31.5 6.5t-25.5 17t-17.5 25t-6.5 30.5q0 34 23.5 57.5t57.5 23.5q33 0 56.5 -23.5
t23.5 -57.5q0 -32 -23.5 -55.5t-56.5 -23.5z" />
    <glyph glyph-name="hbar" unicode="&#x127;" horiz-adv-x="602" 
d="M62 0v730h151v-266q23 22 56.5 34.5t73.5 12.5q49 0 86.5 -16.5t63.5 -46t39.5 -71t13.5 -92.5v-285h-151v259q0 51 -20.5 83t-64.5 32q-29 0 -55 -13t-42 -33v-328h-151zM3 564v96h343v-96h-343z" />
    <glyph glyph-name="hcircumflex" unicode="&#x125;" horiz-adv-x="602" 
d="M62 0v730h151v-266q23 22 56.5 34.5t73.5 12.5q49 0 86.5 -16.5t63.5 -46t39.5 -71t13.5 -92.5v-285h-151v259q0 51 -20.5 83t-64.5 32q-29 0 -55 -13t-42 -33v-328h-151zM264 905h138l114 -137h-134l-49 48l-50 -48h-133z" />
    <glyph glyph-name="dotlessi" unicode="&#x131;" horiz-adv-x="275" 
d="M62 500h151v-500h-151v500z" />
    <glyph glyph-name="ibreve" unicode="&#x12d;" horiz-adv-x="275" 
d="M62 500h151v-500h-151v500zM138 545q-37 0 -69.5 12.5t-56.5 36t-38 56t-14 73.5v7h86v-7q0 -46 27 -69t65 -23t65 23t27 69v7h86v-7q0 -41 -14 -73.5t-38 -56t-56.5 -36t-69.5 -12.5z" />
    <glyph glyph-name="imacron" unicode="&#x12b;" horiz-adv-x="275" 
d="M62 500h151v-500h-151v500zM-36 710h348v-104h-348v104z" />
    <glyph glyph-name="iogonek" unicode="&#x12f;" horiz-adv-x="275" 
d="M137 548q-19 0 -36 7.5t-30 20t-20.5 29.5t-7.5 37q0 19 7.5 36.5t20.5 30t30 20t36 7.5q20 0 37.5 -7.5t30 -20t20 -30t7.5 -36.5q0 -20 -7.5 -37t-20 -29.5t-30 -20t-37.5 -7.5zM62 500h151v-500h-151v500zM116 -204q-50 0 -81 24.5t-31 67.5q0 38 16.5 63.5t41.5 48.5
h151q-38 -17 -58.5 -35t-20.5 -40q0 -16 9 -21.5t19 -5.5q11 0 26 9l39 -78q-22 -14 -50.5 -23.5t-60.5 -9.5z" />
    <glyph glyph-name="itilde" unicode="&#x129;" horiz-adv-x="275" 
d="M62 500h151v-500h-151v500zM-51 593q4 28 15.5 50t28 37t36.5 22.5t41 7.5q23 0 42.5 -7.5t35.5 -16t29.5 -16t25.5 -7.5q20 0 29 12.5t15 35.5h83l-4 -28q-4 -29 -16 -50.5t-28.5 -36.5t-36 -22.5t-40.5 -7.5q-23 0 -42.5 7.5t-35.5 16t-29.5 16t-25.5 7.5
q-20 0 -29 -12.5t-15 -35.5h-83z" />
    <glyph glyph-name="uni1ECB" unicode="&#x1ecb;" horiz-adv-x="275" 
d="M137 548q-19 0 -36 7.5t-30 20t-20.5 29.5t-7.5 37q0 19 7.5 36.5t20.5 30t30 20t36 7.5q20 0 37.5 -7.5t30 -20t20 -30t7.5 -36.5q0 -20 -7.5 -37t-20 -29.5t-30 -20t-37.5 -7.5zM62 500h151v-500h-151v500zM138 -228q-34 0 -57.5 23.5t-23.5 56.5t23.5 56.5t57.5 23.5
q33 0 56.5 -23.5t23.5 -56.5t-23.5 -56.5t-56.5 -23.5z" />
    <glyph glyph-name="uni0237" unicode="&#x237;" horiz-adv-x="283" 
d="M26 -199q-18 0 -36 2t-35 5.5t-30.5 8t-22.5 8.5l35 123q17 -9 35 -13t33 -4q30 0 47.5 19.5t17.5 64.5v485h151v-510q0 -48 -15 -83.5t-41.5 -59t-62 -35t-76.5 -11.5z" />
    <glyph glyph-name="jcircumflex" unicode="&#x135;" horiz-adv-x="283" 
d="M26 -199q-18 0 -36 2t-35 5.5t-30.5 8t-22.5 8.5l35 123q17 -9 35 -13t33 -4q30 0 47.5 19.5t17.5 64.5v485h151v-510q0 -48 -15 -83.5t-41.5 -59t-62 -35t-76.5 -11.5zM84 730h126l127 -152h-129l-61 61l-61 -61h-129z" />
    <glyph glyph-name="uni0137" unicode="&#x137;" horiz-adv-x="560" 
d="M213 223v-223h-151v730h151v-409l146 179h179l-184 -226l228 -274h-183zM260 -335l34 117h-58v139h141v-139l-50 -117h-67z" />
    <glyph glyph-name="lacute" unicode="&#x13a;" horiz-adv-x="275" 
d="M62 730h151v-730h-151v730zM159 960h173l-143 -174h-110z" />
    <glyph glyph-name="lcaron" unicode="&#x13e;" horiz-adv-x="275" 
d="M62 730h151v-730h-151v730zM249 730h151l-69 -160h-102z" />
    <glyph glyph-name="uni013C" unicode="&#x13c;" horiz-adv-x="275" 
d="M62 730h151v-730h-151v730zM92 -335l34 117h-58v139h141v-139l-50 -117h-67z" />
    <glyph glyph-name="ldot" unicode="&#x140;" horiz-adv-x="410" 
d="M62 730h151v-730h-151v730zM343 293q-34 0 -57.5 23.5t-23.5 56.5q0 34 23.5 57.5t57.5 23.5q33 0 56.5 -23.5t23.5 -57.5q0 -33 -23.5 -56.5t-56.5 -23.5z" />
    <glyph glyph-name="lslash" unicode="&#x142;" horiz-adv-x="358" 
d="M104 730h151v-730h-151v730zM31 231v115l297 171v-116z" />
    <glyph glyph-name="nacute" unicode="&#x144;" horiz-adv-x="602" 
d="M62 500h151v-36q23 22 56.5 34.5t73.5 12.5q49 0 86.5 -16.5t63.5 -46t39.5 -71t13.5 -92.5v-285h-151v259q0 51 -20.5 83t-64.5 32q-29 0 -55 -13t-42 -33v-328h-151v500zM324 730h173l-143 -174h-110z" />
    <glyph glyph-name="ncaron" unicode="&#x148;" horiz-adv-x="602" 
d="M62 500h151v-36q23 22 56.5 34.5t73.5 12.5q49 0 86.5 -16.5t63.5 -46t39.5 -71t13.5 -92.5v-285h-151v259q0 51 -20.5 83t-64.5 32q-29 0 -55 -13t-42 -33v-328h-151v500zM242 730l61 -61l61 61h129l-127 -152h-126l-127 152h129z" />
    <glyph glyph-name="uni0146" unicode="&#x146;" horiz-adv-x="602" 
d="M62 500h151v-36q23 22 56.5 34.5t73.5 12.5q49 0 86.5 -16.5t63.5 -46t39.5 -71t13.5 -92.5v-285h-151v259q0 51 -20.5 83t-64.5 32q-29 0 -55 -13t-42 -33v-328h-151v500zM257 -335l34 117h-58v139h141v-139l-50 -117h-67z" />
    <glyph glyph-name="oe" unicode="&#x153;" horiz-adv-x="950" 
d="M671 -11q-57 0 -106.5 19t-86.5 55q-36 -35 -83 -54.5t-101 -19.5t-102 20t-83.5 55.5t-56.5 83t-21 102.5t21 102.5t56.5 83t83.5 55.5t102 20t101.5 -20t83.5 -55q35 35 83.5 55t105.5 20q49 0 94.5 -15.5t79.5 -46t54.5 -76t20.5 -106.5q0 -10 -0.5 -22.5t-2.5 -30.5
h-363q7 -45 43 -66.5t79 -21.5q44 0 75.5 17.5t45.5 39.5l112 -84q-35 -50 -95.5 -80t-139.5 -30zM294 130q48 0 79.5 33t31.5 87t-31.5 87t-79.5 33t-79.5 -33t-31.5 -87t31.5 -87t79.5 -33zM664 388q-17 0 -34 -4t-32 -13t-26.5 -23t-16.5 -35h212q-10 40 -40 57.5
t-63 17.5z" />
    <glyph glyph-name="obreve" unicode="&#x14f;" horiz-adv-x="588" 
d="M294 -11q-54 0 -102 20t-83.5 55.5t-56.5 83t-21 102.5t21 102.5t56.5 83t83.5 55.5t102 20t102 -20t83.5 -55.5t56.5 -83t21 -102.5t-21 -102.5t-56.5 -83t-83.5 -55.5t-102 -20zM294 130q48 0 79.5 33t31.5 87t-31.5 87t-79.5 33t-79.5 -33t-31.5 -87t31.5 -87
t79.5 -33zM294 545q-37 0 -69.5 12.5t-56.5 36t-38 56t-14 73.5v7h86v-7q0 -46 27 -69t65 -23t65 23t27 69v7h86v-7q0 -41 -14 -73.5t-38 -56t-56.5 -36t-69.5 -12.5z" />
    <glyph glyph-name="ohungarumlaut" unicode="&#x151;" horiz-adv-x="588" 
d="M294 -11q-54 0 -102 20t-83.5 55.5t-56.5 83t-21 102.5t21 102.5t56.5 83t83.5 55.5t102 20t102 -20t83.5 -55.5t56.5 -83t21 -102.5t-21 -102.5t-56.5 -83t-83.5 -55.5t-102 -20zM294 130q48 0 79.5 33t31.5 87t-31.5 87t-79.5 33t-79.5 -33t-31.5 -87t31.5 -87
t79.5 -33zM212 730h160l-114 -174h-98zM402 730h160l-114 -174h-98z" />
    <glyph glyph-name="omacron" unicode="&#x14d;" horiz-adv-x="588" 
d="M294 -11q-54 0 -102 20t-83.5 55.5t-56.5 83t-21 102.5t21 102.5t56.5 83t83.5 55.5t102 20t102 -20t83.5 -55.5t56.5 -83t21 -102.5t-21 -102.5t-56.5 -83t-83.5 -55.5t-102 -20zM294 130q48 0 79.5 33t31.5 87t-31.5 87t-79.5 33t-79.5 -33t-31.5 -87t31.5 -87
t79.5 -33zM120 710h348v-104h-348v104z" />
    <glyph glyph-name="uni1ECD" unicode="&#x1ecd;" horiz-adv-x="588" 
d="M294 -11q-54 0 -102 20t-83.5 55.5t-56.5 83t-21 102.5t21 102.5t56.5 83t83.5 55.5t102 20t102 -20t83.5 -55.5t56.5 -83t21 -102.5t-21 -102.5t-56.5 -83t-83.5 -55.5t-102 -20zM294 130q48 0 79.5 33t31.5 87t-31.5 87t-79.5 33t-79.5 -33t-31.5 -87t31.5 -87
t79.5 -33zM294 -228q-34 0 -57.5 23.5t-23.5 56.5t23.5 56.5t57.5 23.5q33 0 56.5 -23.5t23.5 -56.5t-23.5 -56.5t-56.5 -23.5z" />
    <glyph glyph-name="racute" unicode="&#x155;" horiz-adv-x="394" 
d="M62 500h151v-56q12 26 42.5 44t68.5 18q20 0 36.5 -3.5t24.5 -6.5l-23 -141q-3 2 -14.5 4t-27.5 2q-26 0 -57 -9.5t-50 -35.5v-316h-151v500zM242 730h173l-143 -174h-110z" />
    <glyph glyph-name="rcaron" unicode="&#x159;" horiz-adv-x="394" 
d="M62 500h151v-56q12 26 42.5 44t68.5 18q20 0 36.5 -3.5t24.5 -6.5l-23 -141q-3 2 -14.5 4t-27.5 2q-26 0 -57 -9.5t-50 -35.5v-316h-151v500zM160 730l61 -61l61 61h129l-127 -152h-126l-127 152h129z" />
    <glyph glyph-name="uni0157" unicode="&#x157;" horiz-adv-x="394" 
d="M62 500h151v-56q12 26 42.5 44t68.5 18q20 0 36.5 -3.5t24.5 -6.5l-23 -141q-3 2 -14.5 4t-27.5 2q-26 0 -57 -9.5t-50 -35.5v-316h-151v500zM91 -335l34 117h-58v139h141v-139l-50 -117h-67z" />
    <glyph glyph-name="sacute" unicode="&#x15b;" horiz-adv-x="461" 
d="M234 -11q-66 0 -119.5 22t-88.5 68l100 91q17 -25 45 -38.5t63 -13.5q17 0 31.5 6.5t14.5 21.5q0 13 -11 21t-50 18l-33 8q-72 17 -108 60.5t-34 103.5q1 35 15.5 63.5t40 48.5t60.5 31t76 11q116 0 176 -83l-98 -81q-17 22 -37 31t-42 9q-14 0 -27.5 -6t-13.5 -20
q0 -8 6.5 -18t35.5 -18l46 -12q68 -18 107.5 -54.5t39.5 -103.5q0 -36 -15 -66.5t-41.5 -52.5t-62 -34.5t-76.5 -12.5zM252 730h173l-143 -174h-110z" />
    <glyph glyph-name="scaron" unicode="&#x161;" horiz-adv-x="461" 
d="M234 -11q-66 0 -119.5 22t-88.5 68l100 91q17 -25 45 -38.5t63 -13.5q17 0 31.5 6.5t14.5 21.5q0 13 -11 21t-50 18l-33 8q-72 17 -108 60.5t-34 103.5q1 35 15.5 63.5t40 48.5t60.5 31t76 11q116 0 176 -83l-98 -81q-17 22 -37 31t-42 9q-14 0 -27.5 -6t-13.5 -20
q0 -8 6.5 -18t35.5 -18l46 -12q68 -18 107.5 -54.5t39.5 -103.5q0 -36 -15 -66.5t-41.5 -52.5t-62 -34.5t-76.5 -12.5zM170 730l61 -61l61 61h129l-127 -152h-126l-127 152h129z" />
    <glyph glyph-name="scedilla" unicode="&#x15f;" horiz-adv-x="461" 
d="M234 -11q-66 0 -119.5 22t-88.5 68l100 91q17 -25 45 -38.5t63 -13.5q17 0 31.5 6.5t14.5 21.5q0 13 -11 21t-50 18l-33 8q-72 17 -108 60.5t-34 103.5q1 35 15.5 63.5t40 48.5t60.5 31t76 11q116 0 176 -83l-98 -81q-17 22 -37 31t-42 9q-14 0 -27.5 -6t-13.5 -20
q0 -8 6.5 -18t35.5 -18l46 -12q68 -18 107.5 -54.5t39.5 -103.5q0 -36 -15 -66.5t-41.5 -52.5t-62 -34.5t-76.5 -12.5zM121 -124q30 -17 68 -17q6 0 14.5 1t16 4t13 8t5.5 14q0 14 -10.5 19t-22.5 5t-23 -3.5t-19 -8.5l-36 19l52 86h64l-28 -47q7 5 19.5 8.5t26.5 3.5
q35 0 59 -21.5t24 -54.5q0 -22 -11.5 -39.5t-30.5 -30t-44 -19.5t-51 -7q-23 0 -49.5 3t-50.5 13z" />
    <glyph glyph-name="scircumflex" unicode="&#x15d;" horiz-adv-x="461" 
d="M234 -11q-66 0 -119.5 22t-88.5 68l100 91q17 -25 45 -38.5t63 -13.5q17 0 31.5 6.5t14.5 21.5q0 13 -11 21t-50 18l-33 8q-72 17 -108 60.5t-34 103.5q1 35 15.5 63.5t40 48.5t60.5 31t76 11q116 0 176 -83l-98 -81q-17 22 -37 31t-42 9q-14 0 -27.5 -6t-13.5 -20
q0 -8 6.5 -18t35.5 -18l46 -12q68 -18 107.5 -54.5t39.5 -103.5q0 -36 -15 -66.5t-41.5 -52.5t-62 -34.5t-76.5 -12.5zM168 730h126l127 -152h-129l-61 61l-61 -61h-129z" />
    <glyph glyph-name="uni0219" unicode="&#x219;" horiz-adv-x="461" 
d="M234 -11q-66 0 -119.5 22t-88.5 68l100 91q17 -25 45 -38.5t63 -13.5q17 0 31.5 6.5t14.5 21.5q0 13 -11 21t-50 18l-33 8q-72 17 -108 60.5t-34 103.5q1 35 15.5 63.5t40 48.5t60.5 31t76 11q116 0 176 -83l-98 -81q-17 22 -37 31t-42 9q-14 0 -27.5 -6t-13.5 -20
q0 -8 6.5 -18t35.5 -18l46 -12q68 -18 107.5 -54.5t39.5 -103.5q0 -36 -15 -66.5t-41.5 -52.5t-62 -34.5t-76.5 -12.5zM176 -335l34 117h-58v139h141v-139l-50 -117h-67z" />
    <glyph glyph-name="tcaron" unicode="&#x165;" horiz-adv-x="478" 
d="M338 -6q-45 0 -82.5 11.5t-64.5 35t-42 59t-15 83.5v186h-120v131h120v152h151v-152h150v-131h-150v-155q0 -45 18.5 -64t56.5 -19q19 0 38 5t30 11l45 -123q-9 -5 -24 -10t-33 -9.5t-38.5 -7.5t-39.5 -3zM321 710h151l-69 -160h-102z" />
    <glyph glyph-name="uni0163" unicode="&#x163;" horiz-adv-x="478" 
d="M338 -6q-45 0 -82.5 11.5t-64.5 35t-42 59t-15 83.5v186h-120v131h120v152h151v-152h150v-131h-150v-155q0 -45 18.5 -64t56.5 -19q19 0 38 5t30 11l45 -123q-9 -5 -24 -10t-33 -9.5t-38.5 -7.5t-39.5 -3zM262 -335l34 117h-58v139h141v-139l-50 -117h-67z" />
    <glyph glyph-name="uni021B" unicode="&#x21b;" horiz-adv-x="478" 
d="M338 -6q-45 0 -82.5 11.5t-64.5 35t-42 59t-15 83.5v186h-120v131h120v152h151v-152h150v-131h-150v-155q0 -45 18.5 -64t56.5 -19q19 0 38 5t30 11l45 -123q-9 -5 -24 -10t-33 -9.5t-38.5 -7.5t-39.5 -3zM262 -335l34 117h-58v139h141v-139l-50 -117h-67z" />
    <glyph glyph-name="ubreve" unicode="&#x16d;" horiz-adv-x="591" 
d="M529 0h-151v34q-23 -22 -55 -33.5t-61 -11.5q-50 0 -88.5 16.5t-64.5 46t-39.5 71t-13.5 92.5v285h151v-259q0 -51 20 -83t67 -32q20 0 43.5 12t40.5 34v328h151v-500zM293 545q-37 0 -69.5 12.5t-56.5 36t-38 56t-14 73.5v7h86v-7q0 -46 27 -69t65 -23t65 23t27 69v7h86
v-7q0 -41 -14 -73.5t-38 -56t-56.5 -36t-69.5 -12.5z" />
    <glyph glyph-name="uhungarumlaut" unicode="&#x171;" horiz-adv-x="591" 
d="M529 0h-151v34q-23 -22 -55 -33.5t-61 -11.5q-50 0 -88.5 16.5t-64.5 46t-39.5 71t-13.5 92.5v285h151v-259q0 -51 20 -83t67 -32q20 0 43.5 12t40.5 34v328h151v-500zM211 730h160l-114 -174h-98zM401 730h160l-114 -174h-98z" />
    <glyph glyph-name="umacron" unicode="&#x16b;" horiz-adv-x="591" 
d="M529 0h-151v34q-23 -22 -55 -33.5t-61 -11.5q-50 0 -88.5 16.5t-64.5 46t-39.5 71t-13.5 92.5v285h151v-259q0 -51 20 -83t67 -32q20 0 43.5 12t40.5 34v328h151v-500zM119 710h348v-104h-348v104z" />
    <glyph glyph-name="uogonek" unicode="&#x173;" horiz-adv-x="591" 
d="M529 0h-151v34q-23 -22 -55 -33.5t-61 -11.5q-50 0 -88.5 16.5t-64.5 46t-39.5 71t-13.5 92.5v285h151v-259q0 -51 20 -83t67 -32q20 0 43.5 12t40.5 34v328h151v-500zM432 -204q-50 0 -81 24.5t-31 67.5q0 38 16.5 63.5t41.5 48.5h151q-38 -17 -58.5 -35t-20.5 -40
q0 -16 9 -21.5t19 -5.5q11 0 26 9l39 -78q-22 -14 -50.5 -23.5t-60.5 -9.5z" />
    <glyph glyph-name="uring" unicode="&#x16f;" horiz-adv-x="591" 
d="M529 0h-151v34q-23 -22 -55 -33.5t-61 -11.5q-50 0 -88.5 16.5t-64.5 46t-39.5 71t-13.5 92.5v285h151v-259q0 -51 20 -83t67 -32q20 0 43.5 12t40.5 34v328h151v-500zM293 543q-25 0 -47 9.5t-38.5 26t-26.5 38t-10 46.5t10 46.5t26.5 38t38.5 26t47 9.5t47 -9.5
t38.5 -26t26.5 -38t10 -46.5t-10 -46.5t-26.5 -38t-38.5 -26t-47 -9.5zM293 608q23 0 39.5 16t16.5 39t-16.5 39t-39.5 16t-39.5 -16t-16.5 -39t16.5 -39t39.5 -16z" />
    <glyph glyph-name="utilde" unicode="&#x169;" horiz-adv-x="591" 
d="M529 0h-151v34q-23 -22 -55 -33.5t-61 -11.5q-50 0 -88.5 16.5t-64.5 46t-39.5 71t-13.5 92.5v285h151v-259q0 -51 20 -83t67 -32q20 0 43.5 12t40.5 34v328h151v-500zM104 593q4 28 15.5 50t28 37t36.5 22.5t41 7.5q23 0 42.5 -7.5t35.5 -16t29.5 -16t25.5 -7.5
q20 0 29 12.5t15 35.5h83l-4 -28q-4 -29 -16 -50.5t-28.5 -36.5t-36 -22.5t-40.5 -7.5q-23 0 -42.5 7.5t-35.5 16t-29.5 16t-25.5 7.5q-20 0 -29 -12.5t-15 -35.5h-83z" />
    <glyph glyph-name="uni1EE5" unicode="&#x1ee5;" horiz-adv-x="591" 
d="M529 0h-151v34q-23 -22 -55 -33.5t-61 -11.5q-50 0 -88.5 16.5t-64.5 46t-39.5 71t-13.5 92.5v285h151v-259q0 -51 20 -83t67 -32q20 0 43.5 12t40.5 34v328h151v-500zM300 -228q-34 0 -57.5 23.5t-23.5 56.5t23.5 56.5t57.5 23.5q33 0 56.5 -23.5t23.5 -56.5
t-23.5 -56.5t-56.5 -23.5z" />
    <glyph glyph-name="wacute" unicode="&#x1e83;" horiz-adv-x="810" 
d="M405 264l-85 -264h-152l-165 500h162l87 -307l95 307h116l95 -307l87 307h162l-164 -500h-152zM428 730h173l-143 -174h-110z" />
    <glyph glyph-name="wcircumflex" unicode="&#x175;" horiz-adv-x="810" 
d="M405 264l-85 -264h-152l-165 500h162l87 -307l95 307h116l95 -307l87 307h162l-164 -500h-152zM344 730h126l127 -152h-129l-61 61l-61 -61h-129z" />
    <glyph glyph-name="wdieresis" unicode="&#x1e85;" horiz-adv-x="810" 
d="M405 264l-85 -264h-152l-165 500h162l87 -307l95 307h116l95 -307l87 307h162l-164 -500h-152zM289 562q-17 0 -31.5 6.5t-25.5 17t-17.5 25t-6.5 30.5q0 34 23.5 57.5t57.5 23.5q16 0 30.5 -6.5t25 -17.5t17 -25.5t6.5 -31.5q0 -32 -23.5 -55.5t-55.5 -23.5zM526 562
q-33 0 -56.5 23.5t-23.5 55.5q0 34 23.5 57.5t56.5 23.5t56.5 -23.5t23.5 -57.5q0 -32 -23.5 -55.5t-56.5 -23.5z" />
    <glyph glyph-name="wgrave" unicode="&#x1e81;" horiz-adv-x="810" 
d="M405 264l-85 -264h-152l-165 500h162l87 -307l95 307h116l95 -307l87 307h162l-164 -500h-152zM356 556l-143 174h173l80 -174h-110z" />
    <glyph glyph-name="ycircumflex" unicode="&#x177;" horiz-adv-x="576" 
d="M111 -194l97 223l-208 471h165l124 -309l123 309h166l-304 -694h-163zM228 730h126l127 -152h-129l-61 61l-61 -61h-129z" />
    <glyph glyph-name="ygrave" unicode="&#x1ef3;" horiz-adv-x="576" 
d="M111 -194l97 223l-208 471h165l124 -309l123 309h166l-304 -694h-163zM240 556l-143 174h173l80 -174h-110z" />
    <glyph glyph-name="uni0233" unicode="&#x233;" horiz-adv-x="576" 
d="M111 -194l97 223l-208 471h165l124 -309l123 309h166l-304 -694h-163zM117 710h348v-104h-348v104z" />
    <glyph glyph-name="zacute" unicode="&#x17a;" horiz-adv-x="502" 
d="M41 118l219 246h-216v136h412v-119l-219 -245h227v-136h-423v118zM271 730h173l-143 -174h-110z" />
    <glyph glyph-name="zcaron" unicode="&#x17e;" horiz-adv-x="502" 
d="M41 118l219 246h-216v136h412v-119l-219 -245h227v-136h-423v118zM189 730l61 -61l61 61h129l-127 -152h-126l-127 152h129z" />
    <glyph glyph-name="zdotaccent" unicode="&#x17c;" horiz-adv-x="502" 
d="M41 118l219 246h-216v136h412v-119l-219 -245h227v-136h-423v118zM250 562q-17 0 -31.5 6.5t-25.5 17t-17.5 25t-6.5 30.5q0 34 23.5 57.5t57.5 23.5q33 0 56.5 -23.5t23.5 -57.5q0 -32 -23.5 -55.5t-56.5 -23.5z" />
    <glyph glyph-name="ellipsis" unicode="&#x2026;" horiz-adv-x="837" 
d="M51 0v179h179v-179h-179zM329 0v179h179v-179h-179zM608 0v179h179v-179h-179z" />
    <glyph glyph-name="endash" unicode="&#x2013;" horiz-adv-x="593" 
d="M55 352h483v-144h-483v144z" />
    <glyph glyph-name="emdash" unicode="&#x2014;" horiz-adv-x="949" 
d="M55 352h839v-144h-839v144z" />
    <glyph glyph-name="guilsinglleft" unicode="&#x2039;" horiz-adv-x="313" 
d="M275 77l-95 -61l-152 234l152 234l95 -61l-90 -173z" />
    <glyph glyph-name="guilsinglright" unicode="&#x203a;" horiz-adv-x="313" 
d="M128 250l-90 173l95 61l152 -234l-152 -234l-95 61z" />
    <glyph glyph-name="quoteleft" unicode="&#x2018;" horiz-adv-x="276" 
d="M155 540h72v-179h-179v179l71 170h84z" />
    <glyph glyph-name="quoteright" unicode="&#x2019;" horiz-adv-x="264" 
d="M117 531h-72v179h179v-179l-71 -170h-84z" />
    <glyph glyph-name="quotedblleft" unicode="&#x201c;" horiz-adv-x="518" 
d="M155 540h72v-179h-179v179l71 170h84zM397 540h72v-179h-179v179l71 170h84z" />
    <glyph glyph-name="quotedblright" unicode="&#x201d;" horiz-adv-x="506" 
d="M117 531h-72v179h179v-179l-71 -170h-84zM359 531h-72v179h179v-179l-71 -170h-84z" />
    <glyph glyph-name="quotesinglbase" unicode="&#x201a;" horiz-adv-x="289" 
d="M127 0h-72v179h179v-179l-71 -170h-84z" />
    <glyph glyph-name="quotedblbase" unicode="&#x201e;" horiz-adv-x="531" 
d="M127 0h-72v179h179v-179l-71 -170h-84zM369 0h-72v179h179v-179l-71 -170h-84z" />
    <glyph glyph-name="bullet" unicode="&#x2022;" horiz-adv-x="395" 
d="M197 166q-28 0 -52.5 10.5t-43 29t-29.5 43.5t-11 53t11 53t29.5 43.5t43 29t52.5 10.5t53 -10.5t43.5 -29t29.5 -43.5t11 -53t-11 -53t-29.5 -43.5t-43.5 -29t-53 -10.5z" />
    <glyph glyph-name="minus" unicode="&#x2212;" horiz-adv-x="536" 
d="M58 355h420v-131h-420v131z" />
    <glyph glyph-name="Euro" unicode="&#x20ac;" horiz-adv-x="771" 
d="M26 389l20 57h60q15 59 48.5 109.5t81 87.5t105.5 58t123 21q83 0 155 -32.5t119 -88.5l-101 -108q-30 34 -73.5 57t-99.5 23q-70 0 -121.5 -36t-76.5 -91h350l-18 -57h-349q-1 -8 -1.5 -17t-0.5 -17t0.5 -16.5t1.5 -16.5h328l-18 -57h-293q24 -56 76 -92t122 -36
q56 0 99.5 23t73.5 57l101 -108q-47 -56 -119 -88.5t-155 -32.5q-65 0 -123.5 21t-105.5 58t-80.5 87.5t-48.5 110.5h-80l20 57h50q-1 8 -1 16.5v16.5v17t1 17h-70z" />
    <glyph glyph-name="uniFB01" unicode="&#xfb01;" horiz-adv-x="743" 
d="M605 548q-19 0 -36 7.5t-30 20t-20.5 29.5t-7.5 37q0 19 7.5 36.5t20.5 30t30 20t36 7.5q20 0 37.5 -7.5t30 -20t20 -30t7.5 -36.5q0 -20 -7.5 -37t-20 -29.5t-30 -20t-37.5 -7.5zM530 500h151v-500h-151v500zM136 369h-120v131h120v28q0 41 12.5 78.5t37.5 66.5t63 46
t90 17q48 0 81 -10t53 -20l-55 -123q-11 6 -25 11.5t-34 5.5q-33 0 -52.5 -20t-19.5 -52v-28h167v-131h-167v-369h-151v369z" />
    <glyph glyph-name="uniFB02" unicode="&#xfb02;" horiz-adv-x="743" 
d="M136 369h-120v131h120v28q0 41 12.5 78.5t37.5 66.5t63 46t90 17q48 0 81 -10t53 -20l-55 -123q-11 6 -25 11.5t-34 5.5q-33 0 -52.5 -20t-19.5 -52v-28h167v-131h-167v-369h-151v369zM530 730h151v-730h-151v730z" />
    <glyph glyph-name="glyph328" horiz-adv-x="269" 
d="M134 548q-19 0 -36 7.5t-30 20t-20.5 29.5t-7.5 37q0 19 7.5 36.5t20.5 30t30 20t36 7.5q20 0 37.5 -7.5t30 -20t20 -30t7.5 -36.5q0 -20 -7.5 -37t-20 -29.5t-30 -20t-37.5 -7.5z" />
    <glyph glyph-name="breve" unicode="&#x2d8;" 
d="M0 545q-37 0 -69.5 12.5t-56.5 36t-38 56t-14 73.5v7h86v-7q0 -46 27 -69t65 -23t65 23t27 69v7h86v-7q0 -41 -14 -73.5t-38 -56t-56.5 -36t-69.5 -12.5z" />
    <glyph glyph-name="caron" unicode="&#x2c7;" 
d="M-61 730l61 -61l61 61h129l-127 -152h-126l-127 152h129z" />
    <glyph glyph-name="circumflex" unicode="&#x2c6;" 
d="M-63 730h126l127 -152h-129l-61 61l-61 -61h-129z" />
    <glyph glyph-name="dotaccent" unicode="&#x2d9;" 
d="M0 562q-17 0 -31.5 6.5t-25.5 17t-17.5 25t-6.5 30.5q0 34 23.5 57.5t57.5 23.5q33 0 56.5 -23.5t23.5 -57.5q0 -32 -23.5 -55.5t-56.5 -23.5z" />
    <glyph glyph-name="glyph333" 
d="M0 -80q-34 0 -57.5 23.5t-23.5 56.5q0 34 23.5 57.5t57.5 23.5q33 0 56.5 -23.5t23.5 -57.5q0 -33 -23.5 -56.5t-56.5 -23.5z" />
    <glyph glyph-name="glyph334" 
d="M0 -228q-34 0 -57.5 23.5t-23.5 56.5t23.5 56.5t57.5 23.5q33 0 56.5 -23.5t23.5 -56.5t-23.5 -56.5t-56.5 -23.5z" />
    <glyph glyph-name="hungarumlaut" unicode="&#x2dd;" 
d="M-149 730h160l-114 -174h-98zM41 730h160l-114 -174h-98z" />
    <glyph glyph-name="glyph336" 
d="M-46 -335l34 117h-58v139h141v-139l-50 -117h-67z" />
    <glyph glyph-name="ogonek" unicode="&#x2db;" 
d="M0 -204q-50 0 -81 24.5t-31 67.5q0 38 16.5 63.5t41.5 48.5h151q-38 -17 -58.5 -35t-20.5 -40q0 -16 9 -21.5t19 -5.5q11 0 26 9l39 -78q-22 -14 -50.5 -23.5t-60.5 -9.5z" />
    <glyph glyph-name="ring" unicode="&#x2da;" 
d="M0 543q-25 0 -47 9.5t-38.5 26t-26.5 38t-10 46.5t10 46.5t26.5 38t38.5 26t47 9.5t47 -9.5t38.5 -26t26.5 -38t10 -46.5t-10 -46.5t-26.5 -38t-38.5 -26t-47 -9.5zM0 608q23 0 39.5 16t16.5 39t-16.5 39t-39.5 16t-39.5 -16t-16.5 -39t16.5 -39t39.5 -16z" />
    <glyph glyph-name="tilde" unicode="&#x2dc;" 
d="M-189 593q4 28 15.5 50t28 37t36.5 22.5t41 7.5q23 0 42.5 -7.5t35.5 -16t29.5 -16t25.5 -7.5q20 0 29 12.5t15 35.5h83l-4 -28q-4 -29 -16 -50.5t-28.5 -36.5t-36 -22.5t-40.5 -7.5q-23 0 -42.5 7.5t-35.5 16t-29.5 16t-25.5 7.5q-20 0 -29 -12.5t-15 -35.5h-83z" />
    <glyph glyph-name="glyph340" 
d="M-65 710h151l-69 -160h-102z" />
    <glyph glyph-name="glyph341" 
d="M47 829l-33 -117h57v-140h-141v140l50 117h67z" />
    <glyph glyph-name="glyph342" 
d="M-94 572q-33 0 -56.5 23.5t-23.5 55.5q0 33 23.5 56.5t56.5 23.5q32 0 55.5 -23.5t23.5 -56.5q0 -32 -23.5 -55.5t-55.5 -23.5zM93 572q-32 0 -55.5 23.5t-23.5 55.5q0 33 23.5 56.5t55.5 23.5q33 0 56.5 -23.5t23.5 -56.5q0 -32 -23.5 -55.5t-56.5 -23.5z" />
    <glyph glyph-name="glyph343" 
d="M-214 -11l-47 49l475 473l47 -49z" />
    <glyph glyph-name="glyph344" 
d="M-171 564v96h343v-96h-343z" />
    <glyph glyph-name="glyph345" 
d="M-171 564v96h343v-96h-343z" />
    <glyph glyph-name="glyph346" 
d="M-148 231v115l297 171v-116z" />
    <glyph glyph-name="glyph347" 
d="M-48 905h165l-125 -137h-110z" />
    <glyph glyph-name="glyph348" 
d="M0 747q-37 0 -69.5 12.5t-56.5 36t-38 57t-14 74.5h86q0 -47 27 -70t65 -23t65 23t27 70h86q0 -41 -14 -74.5t-38 -57t-56.5 -36t-69.5 -12.5z" />
    <glyph glyph-name="glyph349" 
d="M-183 905h133l50 -49l49 49h134l-114 -137h-138z" />
    <glyph glyph-name="glyph350" 
d="M-105 -124q30 -17 68 -17q6 0 14.5 1t16 4t13 8t5.5 14q0 14 -10.5 19t-21.5 5q-13 0 -24 -3.5t-19 -8.5l-36 19l52 86h64l-28 -47q7 5 20 8.5t27 3.5q34 0 58 -21.5t24 -54.5q0 -22 -11.5 -39.5t-30.5 -30t-44 -19.5t-51 -7q-23 0 -49.5 3t-50.5 13z" />
    <glyph glyph-name="glyph351" 
d="M-69 905h138l114 -137h-134l-49 48l-50 -48h-133z" />
    <glyph glyph-name="glyph352" 
d="M-118 768q-17 0 -31.5 6.5t-25.5 17.5t-17.5 25.5t-6.5 30.5q0 34 23.5 57.5t57.5 23.5q16 0 30.5 -6.5t25 -17.5t17 -25.5t6.5 -31.5q0 -16 -6.5 -30.5t-17 -25.5t-25 -17.5t-30.5 -6.5zM119 768q-17 0 -31.5 6.5t-25 17.5t-17 25.5t-6.5 30.5q0 34 23.5 57.5t56.5 23.5
t56.5 -23.5t23.5 -57.5q0 -16 -6.5 -30.5t-17 -25.5t-25.5 -17.5t-31 -6.5z" />
    <glyph glyph-name="glyph353" 
d="M0 768q-17 0 -31.5 6.5t-25.5 17.5t-17.5 25.5t-6.5 30.5q0 34 23.5 57.5t57.5 23.5q33 0 56.5 -23.5t23.5 -57.5q0 -16 -6.5 -30.5t-17 -25.5t-25.5 -17.5t-31 -6.5z" />
    <glyph glyph-name="glyph354" 
d="M0 -80q-34 0 -57.5 23.5t-23.5 56.5q0 34 23.5 57.5t57.5 23.5q33 0 56.5 -23.5t23.5 -57.5q0 -33 -23.5 -56.5t-56.5 -23.5z" />
    <glyph glyph-name="glyph355" 
d="M0 -227q-34 0 -57.5 23.5t-23.5 56.5t23.5 56.5t57.5 23.5q33 0 56.5 -23.5t23.5 -56.5t-23.5 -56.5t-56.5 -23.5z" />
    <glyph glyph-name="glyph356" 
d="M-46 -335l34 117h-58v139h141v-139l-50 -117h-67z" />
    <glyph glyph-name="glyph357" 
d="M7 768l-125 137h165l70 -137h-110z" />
    <glyph glyph-name="glyph358" 
d="M-149 905h160l-114 -137h-98zM41 905h160l-114 -137h-98z" />
    <glyph glyph-name="glyph359" 
d="M-174 891h348v-104h-348v104z" />
    <glyph glyph-name="glyph360" 
d="M-2 -204q-23 0 -43.5 6.5t-36 18.5t-24.5 29.5t-9 39.5q0 31 15 56.5t41 53.5h159q-38 -17 -58.5 -35.5t-20.5 -36.5q0 -13 8.5 -18t15.5 -5q8 0 13.5 2t12.5 7l43 -85q-22 -14 -51.5 -23.5t-64.5 -9.5z" />
    <glyph glyph-name="glyph361" 
d="M1 753q-25 0 -47 9.5t-38.5 26t-26.5 38t-10 46.5t10 46.5t26.5 38t38.5 26t47 9.5t47 -9.5t38.5 -26t26.5 -38t10 -46.5t-10 -46.5t-26.5 -38t-38.5 -26t-47 -9.5zM1 818q23 0 39.5 16t16.5 39t-16.5 39t-39.5 16t-39.5 -16t-16.5 -39t16.5 -39t39.5 -16z" />
    <glyph glyph-name="glyph362" 
d="M-189 804q4 28 15.5 50t28 37t36.5 22.5t41 7.5q23 0 42.5 -7.5t35.5 -16t29.5 -16t25.5 -7.5q20 0 29 12.5t15 35.5h83l-4 -28q-4 -29 -16 -50.5t-28.5 -36.5t-36.5 -22.5t-41 -7.5q-23 0 -42.5 7.5t-35.5 16t-29.5 16t-24.5 7.5q-20 0 -29 -12.5t-16 -35.5h-82z" />
    <glyph glyph-name="glyph363" 
d="M-175 427h351v-138h-351v138z" />
    <glyph glyph-name="glyph364" 
d="M-285 -18l-89 90l657 656l89 -90z" />
    <glyph glyph-name="glyph365" 
d="M-180 213v124l360 206v-125z" />
    <glyph glyph-name="glyph366" 
d="M-374 623h748v-108h-748v108z" />
    </font>
</defs>
</svg>
